osu file format v5

[General]
AudioFilename: ReRicked.mp3
AudioLeadIn: 0
PreviewTime: -1
Countdown: 1
SampleSet: Soft
StackLeniency: 0.7
Mode: 0

[Metadata]
Title:ReRicked
Artist:KgZ
Creator:Silvuh
Version:Easy

[Difficulty]
HPDrainRate:2
CircleSize:3
OverallDifficulty:3
SliderMultiplier:1.4
SliderTickRate:1

[Events]
//Background and Video events
0,0,"rerickedbg.png"
//Break Periods
//Storyboard Layer 0 (Background)
//Storyboard Layer 1 (Failing)
//Storyboard Layer 2 (Passing)
//Storyboard Layer 3 (Foreground)
//Storyboard Sound Samples
//Background Colour Transformations
3,100,163,162,255

[TimingPoints]
2050,461.505061538462,4,2,0,100

[Colours]
Combo1 : 255,215,0
Combo2 : 254,254,0
Combo3 : 255,215,0
Combo4 : 246,146,2

[HitObjects]
56,48,2049,1,0
224,48,2742,1,0
224,328,3896,5,2
392,328,4588,1,2
392,48,5742,5,0
224,48,6434,1,0
224,328,7588,5,0
320,120,8511,5,2
320,232,8972,1,2
208,232,9434,5,0
40,232,10126,2,2,B|114:220|90:105,1,140
264,120,11280,5,2
264,288,11972,2,0,B|351:299|381:223,1,140
384,56,13126,5,0
272,184,13818,2,0,B|213:132|222:50,1,140
56,56,14972,5,6
56,280,15895,5,2
280,280,16818,5,6
448,280,17510,2,2,B|522:268|498:153,1,140
328,168,18664,5,0
160,168,19356,2,0,B|247:179|277:103,1,140
272,272,20510,5,0
104,272,21202,2,0,B|45:220|54:138,1,140
40,312,22356,5,6
40,88,23279,5,2
40,200,23740,1,2
152,200,24202,5,6
320,200,24894,1,2
48,120,26048,5,2
216,120,26740,1,2
440,280,27894,5,2
272,280,28586,1,2
120,40,29740,5,2
120,208,30432,1,2
400,208,31586,5,2
408,376,32278,1,2
400,96,33432,5,2
232,96,34124,1,2
232,376,35278,5,2
400,376,35970,1,2
216,168,37124,5,2
96,280,37816,1,2
96,280,38047,1,6
352,64,39431,5,2
344,232,40124,1,0
200,320,40816,1,6
56,232,41508,2,2,B|56:182,1,35
288,288,42662,5,2
288,120,43354,1,2
8,120,44508,5,2
120,120,44969,1,0
120,200,45316,1,6
440,104,46700,5,2
352,104,47046,1,0
264,104,47392,1,2
64,104,48200,1,2
120,104,48431,2,6,B|120:260|187:333|336:328,1,350
328,216,50046,5,2
496,216,50738,1,2
240,96,51892,5,2
320,96,52238,2,6,B|411:26,1,105
168,184,53738,5,6
336,184,54430,2,2,B|336:241|336:241|304:271|200:321|237:228,1,210
160,152,55584,5,6
328,152,56276,1,6
440,152,56738,1,0
328,24,57430,5,0
160,24,58122,2,2,B|103:24|103:24|73:-8|8:98|4:156,1,210
16,232,59276,5,6
184,232,59968,1,6
296,232,60430,1,0
296,64,61122,5,0
464,64,61814,2,0,B|464:121|464:121|432:151|333:142|292:117,1,210
200,128,62968,5,6
32,128,63660,1,6
32,240,64122,1,0
200,240,64814,5,0
368,240,65506,2,2,B|368:183|368:183|336:153|270:197|193:176,1,210
104,184,66660,5,6
104,16,67352,1,6
216,24,67814,1,6
240,72,68045,1,6
