osu file format v14

[General]
AudioFilename: kaze.mp3
AudioLeadIn: 0
PreviewTime: 52827
Countdown: 0
SampleSet: Soft
StackLeniency: 0.4
Mode: 0
LetterboxInBreaks: 0
WidescreenStoryboard: 0

[Editor]
DistanceSpacing: 1
BeatDivisor: 4
GridSize: 8
TimelineZoom: 1.5

[Metadata]
Title:Kaze ni fukare temo
TitleUnicode:風に吹かれても
Artist:Keyakizaka46
ArtistUnicode:欅坂46
Creator:Sandrew
Version:Normal
Source:
Tags:
BeatmapID:1434026
BeatmapSetID:677520

[Difficulty]
HPDrainRate:2
CircleSize:3
OverallDifficulty:3
ApproachRate:4
SliderMultiplier:1.2
SliderTickRate:1

[Events]
//Background and Video events
0,0,"a.jpg",0,0
//Break Periods
//Storyboard Layer 0 (Background)
//Storyboard Layer 1 (Fail)
//Storyboard Layer 2 (Pass)
//Storyboard Layer 3 (Foreground)
//Storyboard Sound Samples

[TimingPoints]
208,476.190476190476,4,2,1,40,1,0
7827,-100,4,2,1,50,0,0
13303,-100,4,2,1,70,0,0
13541,-100,4,2,1,50,0,0
15446,-100,4,2,1,60,0,0
36398,-125,4,2,1,50,0,0
45922,-100,4,2,1,60,0,0
53541,-100,4,2,1,70,0,1
74255,-125,4,2,1,70,0,1
76398,-100,4,2,1,60,0,0

[Colours]
Combo1 : 0,0,255
Combo2 : 0,255,255
Combo3 : 18,124,255
Combo4 : 192,192,192

[HitObjects]
72,64,208,5,8,0:0:0:0:
191,59,684,2,0,L|343:51,1,120,8|8,0:0|0:0,0:0:0:0:
366,75,1398,1,2,0:0:0:0:
405,120,1636,2,0,P|424:146|432:185,2,60,8|2|8,0:0|0:0|0:0,0:0:0:0:
314,199,2588,2,0,L|191:192,1,120,8|8,0:0|0:0,0:0:0:0:
134,189,3303,1,2,0:0:0:0:
84,223,3541,2,0,P|70:253|67:291,1,60,8|0,0:0|0:0,0:0:0:0:
93,332,4017,5,8,0:0:0:0:
212,340,4493,2,0,P|272:346|355:343,1,120,8|8,0:0|0:0,0:0:0:0:
385,317,5207,1,2,0:0:0:0:
444,305,5446,2,0,L|509:305,2,60,8|2|8,0:0|0:0|0:0,0:0:0:0:
474,188,6398,2,0,P|414:182|331:185,1,120,8|8,0:0|0:0,0:0:0:0:
301,211,7112,1,2,0:0:0:0:
242,223,7351,2,0,L|177:223,1,60,10|0,0:0|0:0,0:0:0:0:
138,263,7827,5,4,0:0:0:0:
44,338,8303,2,0,P|22:288|28:218,1,120,8|8,0:0|0:0,0:0:0:0:
49,168,9017,1,8,0:0:0:0:
51,108,9255,2,0,L|51:46,2,60,8|2|8,0:0|0:0|0:0,0:0:0:0:
143,31,10207,2,0,L|141:154,1,120,8|8,0:0|0:0,0:0:0:0:
141,211,10922,1,8,0:0:0:0:
200,219,11160,2,0,P|233:228|267:254,1,60,8|2,0:0|0:0,0:0:0:0:
290,289,11636,5,8,0:0:0:0:
403,328,12112,1,8,0:0:0:0:
453,296,12350,2,0,B|452:197|452:197|476:154|476:154|474:58,1,240,8|4,0:0|0:0,0:0:0:0:
294,55,14017,2,0,L|167:55,1,120,0|0,0:0|0:0,0:0:0:0:
116,71,14731,1,8,1:0:0:0:
116,71,14969,1,8,1:0:0:0:
59,177,15446,6,0,P|46:237|59:304,1,120,4|8,0:0|0:0,0:0:0:0:
105,326,16160,2,0,L|242:331,1,120,8|8,0:0|0:0,0:0:0:0:
281,348,16874,2,0,P|314:352|355:342,1,60,8|2,0:0|0:0,0:0:0:0:
460,347,17588,1,2,0:0:0:0:
460,347,17827,2,0,P|467:313|462:274,1,60,8|8,0:0|0:0,0:0:0:0:
467,228,18303,2,0,P|468:194|460:153,1,60,8|8,0:0|0:0,0:0:0:0:
467,108,18779,2,0,P|464:77|435:39,1,60,8|8,0:0|0:0,0:0:0:0:
390,54,19255,6,0,L|256:50,1,120,4|8,0:0|0:0,0:0:0:0:
224,89,19969,2,0,P|213:147|230:221,1,120,8|8,0:0|0:0,0:0:0:0:
276,234,20684,1,8,0:0:0:0:
276,234,20922,1,4,0:0:0:0:
329,341,21398,1,2,0:0:0:0:
329,341,21636,2,0,P|296:349|254:352,1,60,8|2,0:0|0:0,0:0:0:0:
210,348,22113,2,0,P|176:349|135:341,1,60,8|8,0:0|1:0,0:0:0:0:
90,348,22589,2,0,P|59:345|21:316,1,60,8|2,1:0|0:0,0:0:0:0:
27,271,23065,6,0,L|32:141,1,120,8|0,0:0|0:0,0:0:0:0:
66,102,23779,1,2,0:0:0:0:
66,102,24017,2,0,P|118:73|185:76,1,120,8|0,0:0|0:0,0:0:0:0:
261,159,24969,2,0,P|296:98|295:39,2,120,8|8|0,0:0|0:0|0:0,0:0:0:0:
229,210,26160,1,8,1:0:0:0:
229,210,26398,1,8,1:0:0:0:
281,318,26874,6,0,P|328:340|414:339,1,120,8|0,0:0|0:0,0:0:0:0:
451,322,27588,1,0,0:0:0:0:
451,322,27827,2,0,P|466:252|453:193,1,120,8|0,0:0|0:0,0:0:0:0:
459,145,28541,1,0,0:0:0:0:
459,145,28779,2,0,L|464:18,2,120,8|8|0,0:0|0:0|0:0,0:0:0:0:
457,205,29969,1,8,1:0:0:0:
457,205,30207,1,8,1:0:0:0:
356,138,30684,6,0,L|351:265,2,120,0|8|8,0:0|0:0|0:0,0:0:0:0:
357,78,31874,2,0,P|379:57|408:45,2,60,0|0|2,0:0|0:0|0:0,0:0:0:0:
305,107,32588,2,0,P|273:95|232:92,1,60,8|2,0:0|0:0,0:0:0:0:
193,65,33065,2,0,L|58:61,1,120,8|8,0:0|0:0,0:0:0:0:
17,37,33779,1,8,1:0:0:0:
17,37,34017,1,8,1:0:0:0:
40,154,34493,6,0,P|28:220|44:285,1,120,8|0,0:0|0:0,0:0:0:0:
85,308,35207,1,2,0:0:0:0:
85,308,35446,2,0,P|151:320|216:304,1,120,8|0,0:0|0:0,0:0:0:0:
254,280,36160,1,8,0:0:0:0:
254,280,36398,2,0,B|275:207|233:156|261:74,1,192,4|0,0:0|0:0,0:0:0:0:
293,59,37588,1,8,1:0:0:0:
293,59,37827,2,0,L|356:54,1,48,8|2,1:0|0:0,0:0:0:0:
387,57,38303,6,0,P|434:86|452:136,1,96,4|0,0:0|0:0,0:0:0:0:
454,169,39017,2,0,L|462:283,1,96,8|0,0:0|0:0,0:0:0:0:
379,316,39969,1,8,0:0:0:0:
379,316,40207,2,0,L|372:220,1,96,4|0,0:0|0:0,0:0:0:0:
365,172,40922,2,0,P|342:130|301:107,1,96,8|0,0:0|0:0,0:0:0:0:
221,53,41874,1,8,0:0:0:0:
221,53,42112,6,0,L|113:54,1,96,4|0,0:0|0:0,0:0:0:0:
82,76,42827,2,0,P|57:115|57:183,1,96,8|0,0:0|0:0,0:0:0:0:
120,234,43779,1,8,0:0:0:0:
120,234,44017,2,0,P|145:195|145:127,1,96,4|0,0:0|0:0,0:0:0:0:
184,112,44731,2,0,L|284:111,1,96,0|0,0:0|0:0,0:0:0:0:
352,174,45684,1,8,0:0:0:0:
352,174,45922,6,0,B|410:192|410:192|475:168,1,120,4|8,0:0|0:0,0:0:0:0:
463,51,46874,2,0,B|405:33|405:33|340:57,1,120,8|8,0:0|0:0,0:0:0:0:
229,51,47827,2,0,L|219:129,1,60,8|2,0:0|0:0,0:0:0:0:
265,151,48303,2,0,L|275:229,1,60,8|2,0:0|0:0,0:0:0:0:
225,247,48779,2,0,L|215:325,1,60,8|2,0:0|0:0,0:0:0:0:
167,339,49255,2,0,L|108:340,1,60,8|8,0:0|0:0,0:0:0:0:
54,311,49731,5,4,0:0:0:0:
54,311,49969,1,4,0:0:0:0:
225,247,50684,5,4,0:0:0:0:
225,247,50922,1,4,0:0:0:0:
54,189,51636,5,4,0:0:0:0:
54,189,51874,1,4,0:0:0:0:
254,56,52827,6,0,L|329:45,2,60,0|2|0,0:0|0:0|0:0,0:0:0:0:
200,84,53541,6,0,L|197:216,1,120,4|0,0:0|0:0,0:0:0:0:
242,242,54255,1,8,0:0:0:0:
273,292,54493,2,0,P|291:315|339:323,1,60,8|8,0:0|0:0,0:0:0:0:
375,345,54969,2,0,L|449:344,1,60,8|8,0:0|0:0,0:0:0:0:
472,297,55446,2,0,P|473:258|469:216,1,60,8|2,0:0|0:0,0:0:0:0:
468,177,55922,1,8,0:0:0:0:
468,177,56160,2,0,P|474:114|461:52,1,120,8|8,0:0|0:0,0:0:0:0:
404,49,56874,1,8,0:0:0:0:
284,49,57350,6,0,L|209:52,1,60,4|2,0:0|0:0,0:0:0:0:
166,70,57827,2,0,L|91:73,1,60,8|8,0:0|0:0,0:0:0:0:
52,98,58303,2,0,P|45:133|56:172,1,60,8|8,0:0|0:0,0:0:0:0:
89,201,58779,2,0,P|82:230|86:259,1,60,8|2,0:0|0:0,0:0:0:0:
67,316,59255,2,0,P|45:339|12:353,2,60,8|2|8,0:0|0:0|0:0,0:0:0:0:
86,259,59969,1,8,0:0:0:0:
192,315,60446,1,8,0:0:0:0:
192,315,60684,2,0,P|205:279|204:240,1,60,8|8,0:0|0:0,0:0:0:0:
226,200,61160,6,0,P|218:141|233:67,1,120,4|0,0:0|0:0,0:0:0:0:
276,46,61874,1,8,0:0:0:0:
335,41,62112,2,0,P|367:43|401:53,1,60,8|8,0:0|0:0,0:0:0:0:
451,67,62588,2,0,L|452:140,1,60,8|2,0:0|0:0,0:0:0:0:
440,186,63065,2,0,L|370:188,1,60,8|2,0:0|0:0,0:0:0:0:
323,206,63541,1,8,0:0:0:0:
323,206,63779,2,0,P|269:217|197:203,1,120,8|8,0:0|0:0,0:0:0:0:
205,146,64493,1,8,0:0:0:0:
89,112,64969,6,0,L|89:193,1,60,4|2,0:0|0:0,0:0:0:0:
49,217,65446,2,0,L|49:291,1,60,8|8,0:0|0:0,0:0:0:0:
75,331,65922,2,0,P|109:336|149:324,1,60,8|8,0:0|0:0,0:0:0:0:
193,328,66398,2,0,P|227:333|267:321,1,60,8|2,0:0|0:0,0:0:0:0:
311,329,66874,2,0,P|345:342|370:366,2,60,8|2|8,0:0|0:0|0:0,0:0:0:0:
251,328,67588,1,8,0:0:0:0:
251,207,68065,1,8,0:0:0:0:
251,207,68303,2,0,P|247:160|255:123,1,60,8|8,0:0|0:0,0:0:0:0:
278,95,68779,6,0,B|337:81|337:81|413:100,1,120,4|8,0:0|0:0,0:0:0:0:
459,196,69731,2,0,B|400:210|400:210|324:191,1,120,0|8,0:0|0:0,0:0:0:0:
274,294,70684,2,0,B|216:308|216:308|157:294,2,120,0|0|0,0:0|0:0|0:0,0:0:0:0:
342,195,72112,1,0,0:0:0:0:
278,95,72588,6,0,B|219:81|219:81|161:95,2,120,8|8|8,0:0|0:0|0:0,0:0:0:0:
342,195,74017,1,8,0:0:0:0:
342,242,74255,1,4,0:0:0:0:
170,189,75684,5,8,1:0:0:0:
170,142,75922,1,8,1:0:0:0:
