osu file format v13

[General]
AudioFilename: nagisa_dp.mp3
AudioLeadIn: 0
PreviewTime: 100666
Countdown: 0
SampleSet: Soft
StackLeniency: 0.7
Mode: 3
LetterboxInBreaks: 0
SpecialStyle: 0
WidescreenStoryboard: 1

[Editor]
DistanceSpacing: 0.8
BeatDivisor: 4
GridSize: 32
TimelineZoom: 1

[Metadata]
Title:Nagisa
TitleUnicode:渚
Artist:Key remixed by YOSSHI
ArtistUnicode:Key remixed by YOSSHI
Creator:CrazyStar
Version:HD
Source:~だんごパニック!~
Tags:Clannad Mashiro-Fang [ M o m o ]
BeatmapID:496913
BeatmapSetID:193593

[Difficulty]
HPDrainRate:8
CircleSize:4
OverallDifficulty:8
ApproachRate:5
SliderMultiplier:1.4
SliderTickRate:1

[Events]
//Background and Video events
0,0,"nagidango_bg.jpg",0,0
//Break Periods
//Storyboard Layer 0 (Background)
//Storyboard Layer 1 (Fail)
//Storyboard Layer 2 (Pass)
//Storyboard Layer 3 (Foreground)
//Storyboard Sound Samples
//Background Colour Transformations
3,100,163,162,255

[TimingPoints]
0,333.333333333333,4,2,0,19,1,0
45333,-100,4,1,0,19,0,1
66666,-100,4,1,0,19,0,0
101333,-100,4,1,0,19,0,1
122666,750,4,2,0,19,1,0
130166,800,4,2,0,19,1,0
130966,923.076923076923,4,2,0,19,1,0
131889,1200,4,2,0,19,1,0
134289,1500,4,2,0,19,1,0

[HitObjects]
64,192,0,5,0,0:0:0:0:
448,192,333,1,0,0:0:0:0:
64,192,666,1,0,0:0:0:0:
448,192,999,1,0,0:0:0:0:
64,192,1333,1,0,0:0:0:0:
192,192,1416,1,0,0:0:0:0:
320,192,1499,1,0,0:0:0:0:
448,192,1583,1,0,0:0:0:0:
64,192,1666,1,0,0:0:0:0:
192,192,1749,1,0,0:0:0:0:
320,192,1833,1,0,0:0:0:0:
448,192,1916,1,0,0:0:0:0:
64,192,1999,1,0,0:0:0:0:
192,192,2166,1,0,0:0:0:0:
320,192,2249,1,0,0:0:0:0:
64,192,2333,1,0,0:0:0:0:
320,192,2499,1,0,0:0:0:0:
64,192,2666,1,0,0:0:0:0:
448,192,2666,1,0,0:0:0:0:
192,192,2833,1,0,0:0:0:0:
64,192,2999,1,0,0:0:0:0:
448,192,2999,1,0,0:0:0:0:
192,192,3166,1,0,0:0:0:0:
320,192,3333,1,0,0:0:0:0:
64,192,3333,1,0,0:0:0:0:
448,192,3499,1,0,0:0:0:0:
192,192,3583,1,0,0:0:0:0:
64,192,3666,1,0,0:0:0:0:
320,192,3666,1,0,0:0:0:0:
448,192,3833,1,0,0:0:0:0:
192,192,3999,1,0,0:0:0:0:
320,192,3999,1,0,0:0:0:0:
448,192,4166,1,0,0:0:0:0:
64,192,4333,1,0,0:0:0:0:
320,192,4333,1,0,0:0:0:0:
192,192,4499,1,0,0:0:0:0:
64,192,4666,1,0,0:0:0:0:
448,192,4666,1,0,0:0:0:0:
320,192,4833,1,0,0:0:0:0:
192,192,4916,1,0,0:0:0:0:
448,192,4999,1,0,0:0:0:0:
64,192,4999,1,0,0:0:0:0:
448,192,5166,1,0,0:0:0:0:
320,192,5166,1,0,0:0:0:0:
448,192,5333,1,0,0:0:0:0:
64,192,5333,1,0,0:0:0:0:
192,192,5499,1,0,0:0:0:0:
64,192,5666,1,0,0:0:0:0:
448,192,5666,1,0,0:0:0:0:
192,192,5833,1,0,0:0:0:0:
64,192,5999,1,0,0:0:0:0:
320,192,5999,1,0,0:0:0:0:
448,192,6166,1,0,0:0:0:0:
192,192,6249,1,0,0:0:0:0:
64,192,6333,1,0,0:0:0:0:
320,192,6333,1,0,0:0:0:0:
448,192,6499,1,0,0:0:0:0:
320,192,6666,1,0,0:0:0:0:
192,192,6666,1,0,0:0:0:0:
448,192,6833,1,0,0:0:0:0:
64,192,6999,1,0,0:0:0:0:
192,192,6999,1,0,0:0:0:0:
320,192,7166,1,0,0:0:0:0:
64,192,7333,1,0,0:0:0:0:
448,192,7333,1,0,0:0:0:0:
192,192,7499,1,0,0:0:0:0:
320,192,7583,1,0,0:0:0:0:
448,192,7666,1,0,0:0:0:0:
192,192,7666,1,0,0:0:0:0:
320,192,7832,1,0,0:0:0:0:
64,192,7833,1,0,0:0:0:0:
192,192,7999,1,0,0:0:0:0:
448,192,7999,1,0,0:0:0:0:
320,192,8166,1,0,0:0:0:0:
64,192,8333,1,0,0:0:0:0:
192,192,8333,1,0,0:0:0:0:
448,192,8499,1,0,0:0:0:0:
64,192,8666,1,0,0:0:0:0:
320,192,8666,1,0,0:0:0:0:
192,192,8833,1,0,0:0:0:0:
448,192,8916,1,0,0:0:0:0:
64,192,8999,1,0,0:0:0:0:
192,192,8999,1,0,0:0:0:0:
320,192,9166,1,0,0:0:0:0:
64,192,9333,1,0,0:0:0:0:
448,192,9333,1,0,0:0:0:0:
192,192,9499,1,0,0:0:0:0:
320,192,9666,1,0,0:0:0:0:
64,192,9666,1,0,0:0:0:0:
448,192,9833,1,0,0:0:0:0:
64,192,9999,1,0,0:0:0:0:
192,192,9999,1,0,0:0:0:0:
320,192,10166,1,0,0:0:0:0:
192,192,10249,1,0,0:0:0:0:
448,192,10333,1,0,0:0:0:0:
64,192,10333,1,0,0:0:0:0:
320,192,10499,1,0,0:0:0:0:
192,192,10500,1,0,0:0:0:0:
448,192,10666,1,0,0:0:0:0:
64,192,10666,1,0,0:0:0:0:
192,192,10833,1,0,0:0:0:0:
448,192,10999,1,0,0:0:0:0:
320,192,10999,1,0,0:0:0:0:
64,192,11166,1,0,0:0:0:0:
320,192,11333,1,0,0:0:0:0:
192,192,11333,1,0,0:0:0:0:
192,192,11499,1,0,0:0:0:0:
320,192,11499,1,0,0:0:0:0:
448,192,11583,1,0,0:0:0:0:
64,192,11666,1,0,0:0:0:0:
448,192,11833,1,0,0:0:0:0:
320,192,11833,1,0,0:0:0:0:
64,192,12166,1,0,0:0:0:0:
448,192,12166,1,0,0:0:0:0:
448,192,12499,1,0,0:0:0:0:
64,192,12499,1,0,0:0:0:0:
320,192,12666,1,0,0:0:0:0:
192,192,12749,1,0,0:0:0:0:
320,192,12833,1,0,0:0:0:0:
192,192,12916,1,0,0:0:0:0:
64,192,12999,1,0,0:0:0:0:
448,192,12999,1,0,0:0:0:0:
448,192,13166,1,0,0:0:0:0:
64,192,13333,1,0,0:0:0:0:
320,192,13333,1,0,0:0:0:0:
192,192,13499,1,0,0:0:0:0:
448,192,13499,1,0,0:0:0:0:
320,192,13666,1,0,0:0:0:0:
64,192,13666,1,0,0:0:0:0:
448,192,13833,1,0,0:0:0:0:
64,192,13999,1,0,0:0:0:0:
192,192,13999,1,0,0:0:0:0:
320,192,14166,1,0,0:0:0:0:
192,192,14249,1,0,0:0:0:0:
64,192,14333,1,0,0:0:0:0:
448,192,14333,1,0,0:0:0:0:
192,192,14499,1,0,0:0:0:0:
64,192,14666,1,0,0:0:0:0:
448,192,14666,1,0,0:0:0:0:
320,192,14833,1,0,0:0:0:0:
64,192,14999,1,0,0:0:0:0:
192,192,14999,1,0,0:0:0:0:
448,192,15166,1,0,0:0:0:0:
320,192,15333,1,0,0:0:0:0:
64,192,15333,1,0,0:0:0:0:
192,192,15499,1,0,0:0:0:0:
320,192,15583,1,0,0:0:0:0:
448,192,15666,1,0,0:0:0:0:
64,192,15666,1,0,0:0:0:0:
192,192,15833,1,0,0:0:0:0:
320,192,15999,1,0,0:0:0:0:
64,192,15999,1,0,0:0:0:0:
192,192,16166,1,0,0:0:0:0:
448,192,16166,1,0,0:0:0:0:
64,192,16333,1,0,0:0:0:0:
320,192,16333,1,0,0:0:0:0:
192,192,16499,1,0,0:0:0:0:
64,192,16666,1,0,0:0:0:0:
448,192,16666,1,0,0:0:0:0:
448,192,16833,1,0,0:0:0:0:
192,192,16916,1,0,0:0:0:0:
64,192,16999,1,0,0:0:0:0:
320,192,16999,1,0,0:0:0:0:
192,192,17166,1,0,0:0:0:0:
64,192,17333,1,0,0:0:0:0:
320,192,17333,1,0,0:0:0:0:
448,192,17499,1,0,0:0:0:0:
192,192,17666,1,0,0:0:0:0:
320,192,17666,1,0,0:0:0:0:
64,192,17833,1,0,0:0:0:0:
320,192,17999,1,0,0:0:0:0:
448,192,17999,1,0,0:0:0:0:
320,192,18166,1,0,0:0:0:0:
448,192,18249,1,0,0:0:0:0:
192,192,18333,1,0,0:0:0:0:
320,192,18333,1,0,0:0:0:0:
192,192,18499,1,0,0:0:0:0:
320,192,18499,1,0,0:0:0:0:
64,192,18666,1,0,0:0:0:0:
448,192,18666,1,0,0:0:0:0:
192,192,18833,1,0,0:0:0:0:
320,192,18833,1,0,0:0:0:0:
64,192,18999,1,0,0:0:0:0:
448,192,18999,1,0,0:0:0:0:
192,192,19166,1,0,0:0:0:0:
448,192,19333,1,0,0:0:0:0:
320,192,19333,1,0,0:0:0:0:
64,192,19499,1,0,0:0:0:0:
448,192,19583,1,0,0:0:0:0:
320,192,19666,1,0,0:0:0:0:
192,192,19666,1,0,0:0:0:0:
448,192,19833,1,0,0:0:0:0:
320,192,19999,1,0,0:0:0:0:
64,192,19999,1,0,0:0:0:0:
192,192,20166,1,0,0:0:0:0:
192,192,20333,1,0,0:0:0:0:
448,192,20333,1,0,0:0:0:0:
320,192,20499,1,0,0:0:0:0:
448,192,20666,1,0,0:0:0:0:
192,192,20666,1,0,0:0:0:0:
64,192,20833,1,0,0:0:0:0:
448,192,20916,1,0,0:0:0:0:
320,192,20999,1,0,0:0:0:0:
192,192,20999,1,0,0:0:0:0:
192,192,21166,1,0,0:0:0:0:
320,192,21333,1,0,0:0:0:0:
64,192,21333,1,0,0:0:0:0:
192,192,21499,1,0,0:0:0:0:
448,192,21499,1,0,0:0:0:0:
64,192,21666,1,0,0:0:0:0:
320,192,21666,1,0,0:0:0:0:
192,192,21833,1,0,0:0:0:0:
64,192,21999,1,0,0:0:0:0:
448,192,21999,1,0,0:0:0:0:
320,192,22166,1,0,0:0:0:0:
448,192,22249,1,0,0:0:0:0:
64,192,22333,1,0,0:0:0:0:
192,192,22333,1,0,0:0:0:0:
448,192,22499,1,0,0:0:0:0:
64,192,22666,1,0,0:0:0:0:
320,192,22666,128,0,23333:0:0:0:0:
448,192,22833,1,0,0:0:0:0:
64,192,22999,1,0,0:0:0:0:
448,192,23166,1,0,0:0:0:0:
64,192,23333,1,0,0:0:0:0:
192,192,23416,1,0,0:0:0:0:
320,192,23499,1,0,0:0:0:0:
448,192,23583,1,0,0:0:0:0:
64,192,23666,1,0,0:0:0:0:
192,192,23749,1,0,0:0:0:0:
320,192,23833,1,0,0:0:0:0:
448,192,23916,1,0,0:0:0:0:
64,192,23999,1,0,0:0:0:0:
320,192,23999,1,0,0:0:0:0:
192,192,24166,1,0,0:0:0:0:
448,192,24166,1,0,0:0:0:0:
64,192,24333,1,0,0:0:0:0:
320,192,24333,1,0,0:0:0:0:
192,192,24499,1,0,0:0:0:0:
448,192,24666,1,0,0:0:0:0:
320,192,24666,1,0,0:0:0:0:
192,192,24833,1,0,0:0:0:0:
448,192,24916,1,0,0:0:0:0:
64,192,24999,1,0,0:0:0:0:
320,192,24999,1,0,0:0:0:0:
192,192,25166,1,0,0:0:0:0:
320,192,25333,1,0,0:0:0:0:
192,192,25333,1,0,0:0:0:0:
448,192,25499,1,0,0:0:0:0:
64,192,25666,1,0,0:0:0:0:
192,192,25666,1,0,0:0:0:0:
448,192,25833,1,0,0:0:0:0:
64,192,25999,1,0,0:0:0:0:
320,192,25999,1,0,0:0:0:0:
320,192,26166,1,0,0:0:0:0:
192,192,26249,1,0,0:0:0:0:
64,192,26333,1,0,0:0:0:0:
448,192,26333,1,0,0:0:0:0:
192,192,26499,1,0,0:0:0:0:
320,192,26666,1,0,0:0:0:0:
64,192,26666,1,0,0:0:0:0:
192,192,26833,1,0,0:0:0:0:
448,192,26833,1,0,0:0:0:0:
64,192,26999,1,0,0:0:0:0:
320,192,26999,1,0,0:0:0:0:
448,192,27166,1,0,0:0:0:0:
64,192,27333,1,0,0:0:0:0:
192,192,27333,1,0,0:0:0:0:
320,192,27499,1,0,0:0:0:0:
192,192,27583,1,0,0:0:0:0:
320,192,27666,1,0,0:0:0:0:
448,192,27666,1,0,0:0:0:0:
192,192,27833,1,0,0:0:0:0:
320,192,27999,1,0,0:0:0:0:
64,192,27999,1,0,0:0:0:0:
192,192,28166,1,0,0:0:0:0:
448,192,28333,1,0,0:0:0:0:
320,192,28333,1,0,0:0:0:0:
192,192,28499,1,0,0:0:0:0:
320,192,28666,1,0,0:0:0:0:
64,192,28666,1,0,0:0:0:0:
448,192,28833,1,0,0:0:0:0:
64,192,28916,1,0,0:0:0:0:
192,192,28999,1,0,0:0:0:0:
448,192,28999,1,0,0:0:0:0:
192,192,29166,1,0,0:0:0:0:
448,192,29166,1,0,0:0:0:0:
64,192,29333,1,0,0:0:0:0:
192,192,29333,1,0,0:0:0:0:
320,192,29499,1,0,0:0:0:0:
448,192,29499,1,0,0:0:0:0:
64,192,29666,1,0,0:0:0:0:
192,192,29666,1,0,0:0:0:0:
320,192,29833,1,0,0:0:0:0:
448,192,29999,1,0,0:0:0:0:
320,192,29999,1,0,0:0:0:0:
64,192,30166,1,0,0:0:0:0:
448,192,30249,1,0,0:0:0:0:
320,192,30333,1,0,0:0:0:0:
192,192,30333,1,0,0:0:0:0:
192,192,30499,1,0,0:0:0:0:
64,192,30666,1,0,0:0:0:0:
320,192,30666,1,0,0:0:0:0:
192,192,30833,1,0,0:0:0:0:
448,192,30999,1,0,0:0:0:0:
320,192,30999,1,0,0:0:0:0:
192,192,31166,1,0,0:0:0:0:
320,192,31333,1,0,0:0:0:0:
64,192,31333,1,0,0:0:0:0:
448,192,31499,1,0,0:0:0:0:
320,192,31583,1,0,0:0:0:0:
192,192,31666,1,0,0:0:0:0:
64,192,31666,1,0,0:0:0:0:
448,192,31833,1,0,0:0:0:0:
320,192,31999,1,0,0:0:0:0:
64,192,31999,1,0,0:0:0:0:
192,192,32166,1,0,0:0:0:0:
448,192,32166,1,0,0:0:0:0:
320,192,32333,1,0,0:0:0:0:
64,192,32333,1,0,0:0:0:0:
192,192,32499,1,0,0:0:0:0:
448,192,32666,1,0,0:0:0:0:
64,192,32666,1,0,0:0:0:0:
320,192,32833,1,0,0:0:0:0:
64,192,32916,1,0,0:0:0:0:
192,192,32999,1,0,0:0:0:0:
448,192,32999,1,0,0:0:0:0:
320,192,33166,1,0,0:0:0:0:
448,192,33333,128,0,33999:0:0:0:0:
192,192,33333,1,0,0:0:0:0:
320,192,33499,1,0,0:0:0:0:
192,192,33666,1,0,0:0:0:0:
320,192,33833,1,0,0:0:0:0:
192,192,33999,1,0,0:0:0:0:
320,192,34166,1,0,0:0:0:0:
192,192,34249,1,0,0:0:0:0:
64,192,34333,1,0,0:0:0:0:
192,192,34416,1,0,0:0:0:0:
320,192,34499,1,0,0:0:0:0:
448,192,34583,1,0,0:0:0:0:
64,192,34666,1,0,0:0:0:0:
192,192,34666,1,0,0:0:0:0:
320,192,34833,1,0,0:0:0:0:
192,192,34999,1,0,0:0:0:0:
64,192,35166,1,0,0:0:0:0:
192,192,35499,1,0,0:0:0:0:
320,192,35666,1,0,0:0:0:0:
192,192,35833,1,0,0:0:0:0:
64,192,35999,1,0,0:0:0:0:
448,192,35999,1,0,0:0:0:0:
320,192,36333,1,0,0:0:0:0:
192,192,36666,1,0,0:0:0:0:
64,192,36999,1,0,0:0:0:0:
64,192,37333,1,0,0:0:0:0:
192,192,37333,1,0,0:0:0:0:
320,192,37499,1,0,0:0:0:0:
192,192,37666,1,0,0:0:0:0:
64,192,37833,1,0,0:0:0:0:
192,192,38166,1,0,0:0:0:0:
320,192,38333,1,0,0:0:0:0:
192,192,38499,1,0,0:0:0:0:
64,192,38666,1,0,0:0:0:0:
448,192,38666,1,0,0:0:0:0:
64,192,38999,1,0,0:0:0:0:
64,192,39333,1,0,0:0:0:0:
192,192,39416,1,0,0:0:0:0:
320,192,39499,1,0,0:0:0:0:
448,192,39583,1,0,0:0:0:0:
64,192,39666,1,0,0:0:0:0:
192,192,39749,1,0,0:0:0:0:
320,192,39833,1,0,0:0:0:0:
448,192,39916,1,0,0:0:0:0:
64,192,39999,1,0,0:0:0:0:
192,192,39999,1,0,0:0:0:0:
320,192,40166,1,0,0:0:0:0:
448,192,40166,1,0,0:0:0:0:
448,192,40333,1,0,0:0:0:0:
192,192,40333,1,0,0:0:0:0:
64,192,40499,1,0,0:0:0:0:
192,192,40499,1,0,0:0:0:0:
320,192,40666,1,0,0:0:0:0:
320,192,40833,1,0,0:0:0:0:
448,192,40833,1,0,0:0:0:0:
192,192,40916,1,0,0:0:0:0:
448,192,40999,1,0,0:0:0:0:
64,192,40999,1,0,0:0:0:0:
192,192,41166,1,0,0:0:0:0:
320,192,41166,1,0,0:0:0:0:
320,192,41333,1,0,0:0:0:0:
64,192,41333,1,0,0:0:0:0:
448,192,41499,1,0,0:0:0:0:
64,192,41666,1,0,0:0:0:0:
192,192,41666,1,0,0:0:0:0:
192,192,41833,1,0,0:0:0:0:
448,192,41999,1,0,0:0:0:0:
64,192,41999,1,0,0:0:0:0:
320,192,42166,1,0,0:0:0:0:
192,192,42249,1,0,0:0:0:0:
448,192,42333,1,0,0:0:0:0:
320,192,42333,1,0,0:0:0:0:
192,192,42499,1,0,0:0:0:0:
64,192,42666,1,0,0:0:0:0:
320,192,42666,1,0,0:0:0:0:
448,192,43166,1,0,0:0:0:0:
320,192,43166,1,0,0:0:0:0:
448,192,43499,1,0,0:0:0:0:
320,192,43499,1,0,0:0:0:0:
448,192,43833,1,0,0:0:0:0:
320,192,43833,1,0,0:0:0:0:
192,192,43999,1,0,0:0:0:0:
64,192,43999,1,0,0:0:0:0:
64,192,44666,1,0,0:0:0:0:
192,192,44666,1,0,0:0:0:0:
320,192,44833,1,0,0:0:0:0:
192,192,44833,1,0,0:0:0:0:
448,192,44999,1,0,0:0:0:0:
320,192,44999,1,0,0:0:0:0:
320,192,45166,1,0,0:0:0:0:
64,192,45166,1,0,0:0:0:0:
192,192,45333,1,0,0:0:0:0:
448,192,45333,1,0,0:0:0:0:
320,192,45499,1,0,0:0:0:0:
64,192,45666,1,0,0:0:0:0:
192,192,45666,1,0,0:0:0:0:
448,192,45833,1,0,0:0:0:0:
320,192,45833,1,0,0:0:0:0:
64,192,45999,1,0,0:0:0:0:
192,192,46166,1,0,0:0:0:0:
320,192,46166,1,0,0:0:0:0:
320,192,46333,1,0,0:0:0:0:
448,192,46333,1,0,0:0:0:0:
64,192,46499,1,0,0:0:0:0:
192,192,46499,1,0,0:0:0:0:
448,192,46666,1,0,0:0:0:0:
320,192,46666,1,0,0:0:0:0:
192,192,46833,1,0,0:0:0:0:
320,192,46833,1,0,0:0:0:0:
64,192,46999,1,0,0:0:0:0:
448,192,46999,1,0,0:0:0:0:
320,192,47333,1,0,0:0:0:0:
192,192,47333,1,0,0:0:0:0:
64,192,47499,1,0,0:0:0:0:
192,192,47499,1,0,0:0:0:0:
320,192,47666,1,0,0:0:0:0:
192,192,47666,1,0,0:0:0:0:
448,192,47833,1,0,0:0:0:0:
320,192,47833,1,0,0:0:0:0:
448,192,47999,1,0,0:0:0:0:
320,192,47999,1,0,0:0:0:0:
64,192,48166,1,0,0:0:0:0:
64,192,48333,1,0,0:0:0:0:
320,192,48333,1,0,0:0:0:0:
192,192,48499,1,0,0:0:0:0:
448,192,48499,1,0,0:0:0:0:
64,192,48666,1,0,0:0:0:0:
320,192,48833,1,0,0:0:0:0:
448,192,48833,1,0,0:0:0:0:
64,192,48999,1,0,0:0:0:0:
192,192,48999,1,0,0:0:0:0:
448,192,49166,1,0,0:0:0:0:
320,192,49166,1,0,0:0:0:0:
320,192,49333,1,0,0:0:0:0:
192,192,49333,1,0,0:0:0:0:
320,192,49666,1,0,0:0:0:0:
192,192,49666,1,0,0:0:0:0:
192,192,49999,1,0,0:0:0:0:
64,192,49999,1,0,0:0:0:0:
320,192,50166,1,0,0:0:0:0:
192,192,50166,1,0,0:0:0:0:
448,192,50333,1,0,0:0:0:0:
320,192,50333,1,0,0:0:0:0:
320,192,50499,1,0,0:0:0:0:
64,192,50499,1,0,0:0:0:0:
192,192,50666,1,0,0:0:0:0:
448,192,50666,1,0,0:0:0:0:
320,192,50833,1,0,0:0:0:0:
64,192,50999,1,0,0:0:0:0:
192,192,50999,1,0,0:0:0:0:
448,192,51166,1,0,0:0:0:0:
320,192,51166,1,0,0:0:0:0:
192,192,51333,1,0,0:0:0:0:
192,192,51499,1,0,0:0:0:0:
320,192,51499,1,0,0:0:0:0:
64,192,51666,1,0,0:0:0:0:
320,192,51666,1,0,0:0:0:0:
192,192,51833,1,0,0:0:0:0:
448,192,51833,1,0,0:0:0:0:
64,192,51999,1,0,0:0:0:0:
448,192,51999,1,0,0:0:0:0:
192,192,52166,1,0,0:0:0:0:
320,192,52166,1,0,0:0:0:0:
64,192,52333,1,0,0:0:0:0:
448,192,52333,1,0,0:0:0:0:
448,192,52666,1,0,0:0:0:0:
320,192,52666,1,0,0:0:0:0:
192,192,52999,1,0,0:0:0:0:
320,192,52999,1,0,0:0:0:0:
64,192,53333,1,0,0:0:0:0:
192,192,53333,1,0,0:0:0:0:
64,192,53999,1,0,0:0:0:0:
320,192,53999,1,0,0:0:0:0:
448,192,54333,1,0,0:0:0:0:
320,192,54333,1,0,0:0:0:0:
320,192,54499,1,0,0:0:0:0:
192,192,54499,1,0,0:0:0:0:
64,192,54833,1,0,0:0:0:0:
448,192,54833,1,0,0:0:0:0:
192,192,55333,1,0,0:0:0:0:
64,192,55333,1,0,0:0:0:0:
320,192,55499,1,0,0:0:0:0:
192,192,55499,1,0,0:0:0:0:
448,192,55666,1,0,0:0:0:0:
320,192,55666,1,0,0:0:0:0:
320,192,55833,1,0,0:0:0:0:
64,192,55833,1,0,0:0:0:0:
192,192,55999,1,0,0:0:0:0:
448,192,55999,1,0,0:0:0:0:
320,192,56166,1,0,0:0:0:0:
64,192,56333,1,0,0:0:0:0:
192,192,56333,1,0,0:0:0:0:
320,192,56499,1,0,0:0:0:0:
448,192,56499,1,0,0:0:0:0:
64,192,56666,1,0,0:0:0:0:
192,192,56833,1,0,0:0:0:0:
320,192,56833,1,0,0:0:0:0:
64,192,56999,1,0,0:0:0:0:
320,192,56999,1,0,0:0:0:0:
192,192,57166,1,0,0:0:0:0:
448,192,57166,1,0,0:0:0:0:
448,192,57333,1,0,0:0:0:0:
320,192,57333,1,0,0:0:0:0:
64,192,57499,1,0,0:0:0:0:
192,192,57499,1,0,0:0:0:0:
320,192,57666,1,0,0:0:0:0:
192,192,57666,1,0,0:0:0:0:
64,192,57833,1,0,0:0:0:0:
448,192,57999,1,0,0:0:0:0:
64,192,57999,1,0,0:0:0:0:
64,192,58166,1,0,0:0:0:0:
192,192,58166,1,0,0:0:0:0:
320,192,58333,1,0,0:0:0:0:
192,192,58333,1,0,0:0:0:0:
448,192,58499,1,0,0:0:0:0:
320,192,58499,1,0,0:0:0:0:
448,192,58666,1,0,0:0:0:0:
320,192,58666,1,0,0:0:0:0:
64,192,58833,1,0,0:0:0:0:
320,192,58999,1,0,0:0:0:0:
192,192,58999,1,0,0:0:0:0:
64,192,59166,1,0,0:0:0:0:
192,192,59166,1,0,0:0:0:0:
448,192,59333,1,0,0:0:0:0:
64,192,59499,1,0,0:0:0:0:
320,192,59499,1,0,0:0:0:0:
192,192,59666,1,0,0:0:0:0:
320,192,59666,1,0,0:0:0:0:
64,192,59833,1,0,0:0:0:0:
448,192,59833,1,0,0:0:0:0:
320,192,59999,1,0,0:0:0:0:
64,192,59999,1,0,0:0:0:0:
192,192,60166,1,0,0:0:0:0:
320,192,60333,1,0,0:0:0:0:
448,192,60333,1,0,0:0:0:0:
448,192,60499,1,0,0:0:0:0:
192,192,60666,1,0,0:0:0:0:
64,192,60666,1,0,0:0:0:0:
320,192,60833,1,0,0:0:0:0:
192,192,60833,1,0,0:0:0:0:
192,192,60999,1,0,0:0:0:0:
448,192,60999,1,0,0:0:0:0:
448,192,61166,1,0,0:0:0:0:
320,192,61166,1,0,0:0:0:0:
448,192,61333,1,0,0:0:0:0:
320,192,61333,1,0,0:0:0:0:
64,192,61499,1,0,0:0:0:0:
320,192,61666,1,0,0:0:0:0:
192,192,61666,1,0,0:0:0:0:
64,192,61833,1,0,0:0:0:0:
192,192,61833,1,0,0:0:0:0:
448,192,61999,1,0,0:0:0:0:
320,192,62166,1,0,0:0:0:0:
448,192,62166,1,0,0:0:0:0:
64,192,62333,1,0,0:0:0:0:
320,192,62333,1,0,0:0:0:0:
192,192,62499,1,0,0:0:0:0:
320,192,62499,1,0,0:0:0:0:
64,192,62666,1,0,0:0:0:0:
448,192,62666,1,0,0:0:0:0:
192,192,62833,1,0,0:0:0:0:
320,192,62833,1,0,0:0:0:0:
448,192,62999,1,0,0:0:0:0:
192,192,62999,1,0,0:0:0:0:
320,192,63166,1,0,0:0:0:0:
448,192,63333,1,0,0:0:0:0:
192,192,63333,1,0,0:0:0:0:
64,192,63499,1,0,0:0:0:0:
320,192,63666,1,0,0:0:0:0:
192,192,63666,1,0,0:0:0:0:
448,192,63833,1,0,0:0:0:0:
320,192,63999,1,0,0:0:0:0:
64,192,63999,1,0,0:0:0:0:
192,192,64166,1,0,0:0:0:0:
320,192,64333,1,0,0:0:0:0:
448,192,64499,1,0,0:0:0:0:
64,192,64666,1,0,0:0:0:0:
320,192,64666,1,0,0:0:0:0:
192,192,64833,1,0,0:0:0:0:
64,192,64999,1,0,0:0:0:0:
448,192,64999,1,0,0:0:0:0:
192,192,65166,1,0,0:0:0:0:
448,192,65166,1,0,0:0:0:0:
320,192,65333,1,0,0:0:0:0:
64,192,65499,1,0,0:0:0:0:
448,192,65499,1,0,0:0:0:0:
192,192,65666,1,0,0:0:0:0:
320,192,65833,1,0,0:0:0:0:
64,192,65999,1,0,0:0:0:0:
64,192,66166,1,0,0:0:0:0:
192,192,66249,1,0,0:0:0:0:
320,192,66333,1,0,0:0:0:0:
192,192,66416,1,0,0:0:0:0:
64,192,66499,1,0,0:0:0:0:
320,192,66583,1,0,0:0:0:0:
64,192,66666,128,0,69333:0:0:0:0:
448,192,66666,128,0,69333:0:0:0:0:
192,192,67166,1,0,0:0:0:0:
320,192,67333,1,0,0:0:0:0:
192,192,67333,1,0,0:0:0:0:
320,192,67666,1,0,0:0:0:0:
192,192,67999,1,0,0:0:0:0:
320,192,67999,1,0,0:0:0:0:
320,192,68499,1,0,0:0:0:0:
192,192,68666,1,0,0:0:0:0:
320,192,68666,1,0,0:0:0:0:
192,192,68999,1,0,0:0:0:0:
192,192,69333,128,0,71999:0:0:0:0:
320,192,69333,128,0,71999:0:0:0:0:
64,192,69833,1,0,0:0:0:0:
448,192,69999,1,0,0:0:0:0:
64,192,69999,1,0,0:0:0:0:
448,192,70333,1,0,0:0:0:0:
448,192,70666,1,0,0:0:0:0:
64,192,70666,1,0,0:0:0:0:
448,192,71166,1,0,0:0:0:0:
64,192,71333,1,0,0:0:0:0:
448,192,71333,1,0,0:0:0:0:
64,192,71666,1,0,0:0:0:0:
448,192,71999,128,0,74666:0:0:0:0:
64,192,71999,128,0,74666:0:0:0:0:
320,192,72499,1,0,0:0:0:0:
192,192,72666,1,0,0:0:0:0:
320,192,72666,1,0,0:0:0:0:
192,192,72999,1,0,0:0:0:0:
192,192,73333,1,0,0:0:0:0:
320,192,73333,1,0,0:0:0:0:
192,192,73833,1,0,0:0:0:0:
192,192,73999,1,0,0:0:0:0:
320,192,73999,1,0,0:0:0:0:
320,192,74333,1,0,0:0:0:0:
192,192,74666,128,0,77333:0:0:0:0:
320,192,74666,128,0,77333:0:0:0:0:
448,192,75166,1,0,0:0:0:0:
64,192,75333,1,0,0:0:0:0:
448,192,75333,1,0,0:0:0:0:
64,192,75666,1,0,0:0:0:0:
64,192,75999,1,0,0:0:0:0:
448,192,75999,1,0,0:0:0:0:
64,192,76499,1,0,0:0:0:0:
64,192,76666,1,0,0:0:0:0:
448,192,76666,1,0,0:0:0:0:
448,192,76999,1,0,0:0:0:0:
64,192,77333,128,0,79999:0:0:0:0:
448,192,77333,1,0,0:0:0:0:
320,192,77499,1,0,0:0:0:0:
192,192,77666,1,0,0:0:0:0:
320,192,77833,1,0,0:0:0:0:
448,192,77999,1,0,0:0:0:0:
320,192,78166,1,0,0:0:0:0:
192,192,78333,1,0,0:0:0:0:
320,192,78499,1,0,0:0:0:0:
448,192,78666,1,0,0:0:0:0:
320,192,78833,1,0,0:0:0:0:
192,192,78999,1,0,0:0:0:0:
320,192,79166,1,0,0:0:0:0:
448,192,79333,1,0,0:0:0:0:
320,192,79499,1,0,0:0:0:0:
192,192,79666,1,0,0:0:0:0:
320,192,79833,1,0,0:0:0:0:
448,192,79999,128,0,82666:0:0:0:0:
192,192,79999,1,0,0:0:0:0:
320,192,80333,1,0,0:0:0:0:
192,192,80499,1,0,0:0:0:0:
64,192,80666,1,0,0:0:0:0:
320,192,80999,1,0,0:0:0:0:
192,192,81166,1,0,0:0:0:0:
64,192,81333,1,0,0:0:0:0:
192,192,81499,1,0,0:0:0:0:
320,192,81666,1,0,0:0:0:0:
192,192,81833,1,0,0:0:0:0:
64,192,81999,1,0,0:0:0:0:
192,192,82166,1,0,0:0:0:0:
320,192,82333,1,0,0:0:0:0:
192,192,82499,1,0,0:0:0:0:
64,192,82666,128,0,85333:0:0:0:0:
320,192,82666,1,0,0:0:0:0:
448,192,82833,1,0,0:0:0:0:
192,192,82999,1,0,0:0:0:0:
320,192,83166,1,0,0:0:0:0:
448,192,83333,1,0,0:0:0:0:
320,192,83499,1,0,0:0:0:0:
192,192,83666,1,0,0:0:0:0:
320,192,83833,1,0,0:0:0:0:
448,192,83999,1,0,0:0:0:0:
320,192,84166,1,0,0:0:0:0:
192,192,84333,1,0,0:0:0:0:
320,192,84499,1,0,0:0:0:0:
448,192,84666,1,0,0:0:0:0:
320,192,84833,1,0,0:0:0:0:
192,192,84999,1,0,0:0:0:0:
320,192,85166,1,0,0:0:0:0:
448,192,85333,128,0,87999:0:0:0:0:
192,192,85333,1,0,0:0:0:0:
64,192,85666,1,0,0:0:0:0:
192,192,85833,1,0,0:0:0:0:
320,192,85999,1,0,0:0:0:0:
64,192,86333,1,0,0:0:0:0:
192,192,86499,1,0,0:0:0:0:
320,192,86666,1,0,0:0:0:0:
192,192,86833,1,0,0:0:0:0:
64,192,86999,1,0,0:0:0:0:
192,192,87166,1,0,0:0:0:0:
320,192,87333,1,0,0:0:0:0:
192,192,87499,1,0,0:0:0:0:
64,192,87666,1,0,0:0:0:0:
192,192,87833,1,0,0:0:0:0:
64,192,87999,128,0,90666:0:0:0:0:
320,192,87999,1,0,0:0:0:0:
192,192,88333,1,0,0:0:0:0:
320,192,88666,1,0,0:0:0:0:
192,192,88999,1,0,0:0:0:0:
320,192,89166,1,0,0:0:0:0:
448,192,89666,1,0,0:0:0:0:
192,192,89999,1,0,0:0:0:0:
320,192,90333,1,0,0:0:0:0:
448,192,90666,128,0,93333:0:0:0:0:
192,192,90666,1,0,0:0:0:0:
320,192,90999,1,0,0:0:0:0:
64,192,91333,1,0,0:0:0:0:
192,192,91666,1,0,0:0:0:0:
320,192,91833,1,0,0:0:0:0:
64,192,92333,1,0,0:0:0:0:
192,192,92666,1,0,0:0:0:0:
320,192,92999,1,0,0:0:0:0:
64,192,93333,128,0,95999:0:0:0:0:
192,192,93333,1,0,0:0:0:0:
448,192,93666,1,0,0:0:0:0:
320,192,93999,1,0,0:0:0:0:
192,192,94333,1,0,0:0:0:0:
448,192,94499,1,0,0:0:0:0:
320,192,94999,1,0,0:0:0:0:
192,192,95333,1,0,0:0:0:0:
320,192,95666,1,0,0:0:0:0:
448,192,95999,128,0,98666:0:0:0:0:
192,192,95999,1,0,0:0:0:0:
64,192,96333,1,0,0:0:0:0:
320,192,96666,1,0,0:0:0:0:
64,192,96999,1,0,0:0:0:0:
192,192,97166,1,0,0:0:0:0:
320,192,97666,1,0,0:0:0:0:
64,192,97999,1,0,0:0:0:0:
192,192,98333,1,0,0:0:0:0:
64,192,98666,128,0,99999:0:0:0:0:
192,192,98666,128,0,99999:0:0:0:0:
320,192,99999,128,0,100666:0:0:0:0:
448,192,99999,128,0,100666:0:0:0:0:
64,192,100666,1,0,0:0:0:0:
192,192,100666,1,0,0:0:0:0:
320,192,100833,1,0,0:0:0:0:
192,192,100833,1,0,0:0:0:0:
448,192,100999,1,0,0:0:0:0:
64,192,100999,1,0,0:0:0:0:
320,192,101166,1,0,0:0:0:0:
192,192,101166,1,0,0:0:0:0:
192,192,101333,1,0,0:0:0:0:
320,192,101333,1,0,0:0:0:0:
64,192,101499,1,0,0:0:0:0:
448,192,101666,1,0,0:0:0:0:
320,192,101666,1,0,0:0:0:0:
64,192,101833,1,0,0:0:0:0:
192,192,101833,1,0,0:0:0:0:
448,192,101999,1,0,0:0:0:0:
64,192,102166,1,0,0:0:0:0:
192,192,102166,1,0,0:0:0:0:
320,192,102333,1,0,0:0:0:0:
192,192,102333,1,0,0:0:0:0:
448,192,102499,1,0,0:0:0:0:
320,192,102499,1,0,0:0:0:0:
64,192,102666,1,0,0:0:0:0:
448,192,102666,1,0,0:0:0:0:
192,192,102833,1,0,0:0:0:0:
320,192,102833,1,0,0:0:0:0:
64,192,102999,1,0,0:0:0:0:
320,192,102999,1,0,0:0:0:0:
320,192,103333,1,0,0:0:0:0:
448,192,103333,1,0,0:0:0:0:
192,192,103499,1,0,0:0:0:0:
320,192,103499,1,0,0:0:0:0:
64,192,103666,1,0,0:0:0:0:
320,192,103666,1,0,0:0:0:0:
448,192,103833,1,0,0:0:0:0:
192,192,103833,1,0,0:0:0:0:
448,192,103999,1,0,0:0:0:0:
192,192,103999,1,0,0:0:0:0:
64,192,104166,1,0,0:0:0:0:
320,192,104333,1,0,0:0:0:0:
448,192,104333,1,0,0:0:0:0:
64,192,104499,1,0,0:0:0:0:
192,192,104499,1,0,0:0:0:0:
320,192,104666,1,0,0:0:0:0:
64,192,104833,1,0,0:0:0:0:
320,192,104833,1,0,0:0:0:0:
192,192,104999,1,0,0:0:0:0:
448,192,104999,1,0,0:0:0:0:
448,192,105166,1,0,0:0:0:0:
320,192,105166,1,0,0:0:0:0:
64,192,105333,1,0,0:0:0:0:
320,192,105333,1,0,0:0:0:0:
64,192,105666,1,0,0:0:0:0:
320,192,105666,1,0,0:0:0:0:
64,192,105999,1,0,0:0:0:0:
192,192,105999,1,0,0:0:0:0:
320,192,106166,1,0,0:0:0:0:
192,192,106166,1,0,0:0:0:0:
448,192,106333,1,0,0:0:0:0:
320,192,106333,1,0,0:0:0:0:
320,192,106499,1,0,0:0:0:0:
192,192,106499,1,0,0:0:0:0:
64,192,106666,1,0,0:0:0:0:
448,192,106666,1,0,0:0:0:0:
320,192,106833,1,0,0:0:0:0:
192,192,106999,1,0,0:0:0:0:
448,192,106999,1,0,0:0:0:0:
64,192,107166,1,0,0:0:0:0:
448,192,107166,1,0,0:0:0:0:
192,192,107333,1,0,0:0:0:0:
320,192,107499,1,0,0:0:0:0:
448,192,107499,1,0,0:0:0:0:
64,192,107666,1,0,0:0:0:0:
320,192,107666,1,0,0:0:0:0:
64,192,107833,1,0,0:0:0:0:
192,192,107833,1,0,0:0:0:0:
448,192,107999,1,0,0:0:0:0:
192,192,107999,1,0,0:0:0:0:
192,192,108166,1,0,0:0:0:0:
320,192,108166,1,0,0:0:0:0:
64,192,108333,1,0,0:0:0:0:
448,192,108333,1,0,0:0:0:0:
192,192,108666,1,0,0:0:0:0:
320,192,108666,1,0,0:0:0:0:
64,192,108999,1,0,0:0:0:0:
192,192,108999,1,0,0:0:0:0:
320,192,109333,1,0,0:0:0:0:
448,192,109333,1,0,0:0:0:0:
64,192,109999,1,0,0:0:0:0:
448,192,109999,1,0,0:0:0:0:
64,192,110333,1,0,0:0:0:0:
320,192,110333,1,0,0:0:0:0:
448,192,110499,1,0,0:0:0:0:
192,192,110499,1,0,0:0:0:0:
320,192,110833,1,0,0:0:0:0:
448,192,110833,1,0,0:0:0:0:
192,192,111333,1,0,0:0:0:0:
320,192,111333,1,0,0:0:0:0:
64,192,111499,1,0,0:0:0:0:
320,192,111499,1,0,0:0:0:0:
64,192,111666,1,0,0:0:0:0:
192,192,111666,1,0,0:0:0:0:
320,192,111833,1,0,0:0:0:0:
448,192,111833,1,0,0:0:0:0:
320,192,111999,1,0,0:0:0:0:
448,192,111999,1,0,0:0:0:0:
64,192,112166,1,0,0:0:0:0:
192,192,112333,1,0,0:0:0:0:
320,192,112333,1,0,0:0:0:0:
64,192,112499,1,0,0:0:0:0:
320,192,112499,1,0,0:0:0:0:
448,192,112666,1,0,0:0:0:0:
192,192,112833,1,0,0:0:0:0:
320,192,112833,1,0,0:0:0:0:
64,192,112999,1,0,0:0:0:0:
320,192,112999,1,0,0:0:0:0:
192,192,113166,1,0,0:0:0:0:
448,192,113166,1,0,0:0:0:0:
64,192,113333,1,0,0:0:0:0:
192,192,113333,1,0,0:0:0:0:
320,192,113499,1,0,0:0:0:0:
448,192,113499,1,0,0:0:0:0:
320,192,113666,1,0,0:0:0:0:
64,192,113666,1,0,0:0:0:0:
192,192,113833,1,0,0:0:0:0:
320,192,113999,1,0,0:0:0:0:
448,192,113999,1,0,0:0:0:0:
64,192,114166,1,0,0:0:0:0:
192,192,114166,1,0,0:0:0:0:
64,192,114333,1,0,0:0:0:0:
320,192,114333,1,0,0:0:0:0:
448,192,114499,1,0,0:0:0:0:
192,192,114499,1,0,0:0:0:0:
448,192,114666,1,0,0:0:0:0:
192,192,114666,1,0,0:0:0:0:
320,192,114833,1,0,0:0:0:0:
64,192,114999,1,0,0:0:0:0:
320,192,114999,1,0,0:0:0:0:
64,192,115166,1,0,0:0:0:0:
192,192,115166,1,0,0:0:0:0:
448,192,115333,1,0,0:0:0:0:
320,192,115499,1,0,0:0:0:0:
192,192,115499,1,0,0:0:0:0:
448,192,115666,1,0,0:0:0:0:
64,192,115666,1,0,0:0:0:0:
64,192,115833,1,0,0:0:0:0:
192,192,115833,1,0,0:0:0:0:
320,192,115999,1,0,0:0:0:0:
192,192,115999,1,0,0:0:0:0:
448,192,116166,1,0,0:0:0:0:
320,192,116333,1,0,0:0:0:0:
192,192,116333,1,0,0:0:0:0:
64,192,116499,1,0,0:0:0:0:
64,192,116666,1,0,0:0:0:0:
448,192,116666,1,0,0:0:0:0:
320,192,116833,1,0,0:0:0:0:
192,192,116833,1,0,0:0:0:0:
192,192,116999,1,0,0:0:0:0:
64,192,116999,1,0,0:0:0:0:
448,192,117166,1,0,0:0:0:0:
320,192,117166,1,0,0:0:0:0:
64,192,117333,1,0,0:0:0:0:
448,192,117333,1,0,0:0:0:0:
192,192,117499,1,0,0:0:0:0:
64,192,117666,1,0,0:0:0:0:
320,192,117666,1,0,0:0:0:0:
192,192,117833,1,0,0:0:0:0:
448,192,117833,1,0,0:0:0:0:
64,192,117999,1,0,0:0:0:0:
192,192,118166,1,0,0:0:0:0:
320,192,118166,1,0,0:0:0:0:
64,192,118333,1,0,0:0:0:0:
448,192,118333,1,0,0:0:0:0:
64,192,118499,1,0,0:0:0:0:
192,192,118499,1,0,0:0:0:0:
448,192,118666,1,0,0:0:0:0:
320,192,118666,1,0,0:0:0:0:
64,192,118833,1,0,0:0:0:0:
192,192,118833,1,0,0:0:0:0:
320,192,118999,1,0,0:0:0:0:
192,192,118999,1,0,0:0:0:0:
448,192,119166,1,0,0:0:0:0:
64,192,119333,1,0,0:0:0:0:
320,192,119333,1,0,0:0:0:0:
192,192,119499,1,0,0:0:0:0:
320,192,119666,1,0,0:0:0:0:
448,192,119666,1,0,0:0:0:0:
64,192,119833,1,0,0:0:0:0:
192,192,119999,1,0,0:0:0:0:
320,192,119999,1,0,0:0:0:0:
448,192,120166,1,0,0:0:0:0:
192,192,120333,1,0,0:0:0:0:
64,192,120499,1,0,0:0:0:0:
320,192,120666,1,0,0:0:0:0:
192,192,120666,1,0,0:0:0:0:
64,192,120833,1,0,0:0:0:0:
448,192,120999,1,0,0:0:0:0:
320,192,120999,1,0,0:0:0:0:
64,192,121166,1,0,0:0:0:0:
192,192,121166,1,0,0:0:0:0:
448,192,121333,1,0,0:0:0:0:
64,192,121499,1,0,0:0:0:0:
320,192,121499,1,0,0:0:0:0:
192,192,121666,1,0,0:0:0:0:
64,192,121833,1,0,0:0:0:0:
64,192,121999,1,0,0:0:0:0:
192,192,122083,1,0,0:0:0:0:
320,192,122166,1,0,0:0:0:0:
448,192,122249,1,0,0:0:0:0:
64,192,122333,1,0,0:0:0:0:
192,192,122416,1,0,0:0:0:0:
320,192,122499,1,0,0:0:0:0:
448,192,122583,1,0,0:0:0:0:
64,192,123041,1,0,0:0:0:0:
192,192,123416,1,0,0:0:0:0:
192,192,123791,1,0,0:0:0:0:
448,192,124166,1,0,0:0:0:0:
320,192,124541,1,0,0:0:0:0:
64,192,124916,1,0,0:0:0:0:
192,192,125291,1,0,0:0:0:0:
64,192,125478,1,0,0:0:0:0:
192,192,125666,1,0,0:0:0:0:
192,192,126041,1,0,0:0:0:0:
320,192,126416,1,0,0:0:0:0:
320,192,126791,1,0,0:0:0:0:
448,192,127166,1,0,0:0:0:0:
192,192,127541,1,0,0:0:0:0:
192,192,128291,1,0,0:0:0:0:
64,192,128478,1,0,0:0:0:0:
192,192,128666,1,0,0:0:0:0:
192,192,129041,1,0,0:0:0:0:
320,192,129416,1,0,0:0:0:0:
320,192,129791,1,0,0:0:0:0:
448,192,130166,1,0,0:0:0:0:
320,192,130566,1,0,0:0:0:0:
64,192,130966,1,0,0:0:0:0:
192,192,131427,1,0,0:0:0:0:
64,192,131658,1,0,0:0:0:0:
192,192,131889,1,0,0:0:0:0:
320,192,133089,1,0,0:0:0:0:
64,192,134289,1,0,0:0:0:0:
192,192,134351,1,0,0:0:0:0:
320,192,134414,1,0,0:0:0:0:
448,192,134476,1,0,0:0:0:0:
