osu file format v9

[General]
AudioFilename: dear old home.mp3
AudioLeadIn: 3000
PreviewTime: 20241
Countdown: 0
SampleSet: Soft
StackLeniency: 0.7
Mode: 0
LetterboxInBreaks: 1

[Editor]
Bookmarks: 20320,40320,60320,80320,100320,120320,140320,160320,180320,200320
DistanceSpacing: 1.2
BeatDivisor: 4
GridSize: 4

[Metadata]
Title:dear old home
Artist:Key Sound Lab
Creator:xierbaliti
Version:Easy
Source:Tomoyo After ~It's a Wonderful Life~
Tags:kanbekotori guabiniao ignorethis ignore

[Difficulty]
HPDrainRate:1
CircleSize:2
OverallDifficulty:2
ApproachRate:3
SliderMultiplier:0.999999999999999
SliderTickRate:1

[Events]
//Background and Video events
0,0,"dear my home.jpg"
//Break Periods
2,80545,88905
2,120545,128905
//Storyboard Layer 0 (Background)
//Storyboard Layer 1 (Fail)
//Storyboard Layer 2 (Pass)
//Storyboard Layer 3 (Foreground)
//Storyboard Sound Samples
//Background Colour Transformations
3,100,128,128,64

[TimingPoints]
345,625,4,2,1,60,1,0
19095,-100,4,2,1,5,0,0
19720,-100,4,2,1,10,0,0
20032,-100,4,2,1,60,0,0
24720,-100,4,2,1,60,0,0
40345,-100,4,2,2,70,0,0
90345,-100,4,2,2,55,0,0
97845,-100,4,2,2,60,0,0
100345,-100,4,2,2,70,0,0
140345,-100,4,2,2,55,0,0
160345,-100,4,2,2,60,0,0
180345,-100,4,2,2,70,0,0
201907,-100,4,2,2,60,0,0
202845,-100,4,2,2,50,0,0
204407,-100,4,2,2,40,0,0
204720,-100,4,2,2,30,0,0
205345,-100,4,2,1,5,0,0

[Colours]
Combo1 : 255,128,255
Combo2 : 128,128,0
Combo3 : 64,128,128
Combo4 : 128,0,64

[HitObjects]
312,198,345,2,0,B|293:137|235:122,1,99.9999999999999,0|2
203,118,1282,1,0
203,118,2220,1,0
203,207,2845,6,0,B|222:268|280:283,1,99.9999999999999,0|2
312,287,3782,1,0
312,287,4720,1,0
372,220,5345,6,0,B|468:192,1,99.9999999999999,0|2
468,192,6282,2,0,B|433:129|424:42,1,150
339,79,7845,6,0,B|270:76,1,50,0|0
249,97,8470,2,0,B|192:105,1,50,0|2
150,179,9407,2,0,B|89:164,3,50,0|2|0|0
76,253,10970,5,0
82,297,11282,2,0,B|158:312|235:300,1,150,0|2
241,211,12845,5,0
208,127,13470,1,0
209,82,13782,2,0,B|291:71|372:80,1,150,0|2
448,88,15345,5,0
452,176,15970,2,0,B|456:248,1,50
392,288,16907,2,0,B|336:304,1,50,0|2
272,248,17845,2,0,B|216:232,2,50,0|0|2
316,236,18782,2,0,B|304:192|340:132|284:72,1,150,2|0
208,84,20345,6,0,B|136:132|52:92,1,150
72,232,22220,2,0,B|132:200,3,50,0|0|0|2
204,188,23782,2,0,B|276:224|352:208,1,150,0|2
416,148,25345,5,0
444,232,25970,1,0
444,232,26282,2,0,B|384:272|284:264,1,150,2|2
212,244,27845,5,0
148,184,28470,2,0,B|184:128,1,50,0|2
92,108,29407,2,0,B|144:64,1,50,0|2
172,60,30032,6,0,B|236:72,1,50,0|0
308,88,30970,1,2
352,76,31282,2,0,B|340:140|356:236,1,150,0|2
320,308,32845,6,0,B|264:324,2,50,0|0|0
316,264,33782,2,0,B|248:232|156:244,1,150,2|2
80,244,35345,5,2
44,160,35970,2,0,B|40:108,1,50,0|2
124,140,36907,2,0,B|136:76,2,50,0|2|0
172,216,38157,2,0,B|164:288,2,50,2|0|2
240,156,39407,2,0,B|248:88,2,50,2|0|2
236,216,40345,5,4
352,180,40970,2,0,B|404:204|464:188,2,99.9999999999999,8|0|8
276,88,42845,2,0,B|224:72|164:84,1,99.9999999999999,0|8
116,92,43782,1,0
60,116,44095,1,0
60,116,44720,1,8
92,232,45345,6,0,B|100:300|80:340,1,99.9999999999999,0|8
84,330,46282,2,0,B|168:336|240:308,1,150,0|8
324,232,47845,6,0,B|372:280,1,50,0|2
296,228,48470,6,0,B|240:244,1,50,8|2
316,196,49095,6,0,B|328:136,2,50,0|2|8
364,88,50345,6,0,B|308:48|216:52,1,150,0|0
221,51,51907,2,0,B|208:112,1,50,0|8
296,184,52845,2,0,B|228:236|148:228,1,150
156,228,54407,2,0,B|172:288,1,50,0|8
272,336,55345,6,0,B|304:260|408:248,1,150,0|2
472,168,56907,1,2
432,56,57532,2,0,B|376:104|280:76,1,150,4|8
176,116,59095,6,0,B|136:152|68:128,2,99.9999999999999,0|8|0
268,192,60970,2,0,B|308:236,1,50,8|0
344,272,61595,2,0,B|376:232|452:228,1,99.9999999999999,0|8
444,112,62845,6,0,B|384:96,1,50
336,112,63470,2,0,B|284:120,1,50,8|0
228,140,64095,2,0,B|224:100|192:72,2,74.9999999999999,2|2|2
220,200,65345,6,0,B|204:284|236:364,1,150,2|2
230,347,66595,2,0,B|340:340,1,99.9999999999999,0|8
448,336,67845,6,0,B|436:228,1,99.9999999999999,0|8
428,176,68782,1,2
420,116,69095,2,0,B|372:140|320:124,1,99.9999999999999,0|8
204,104,70345,5,2
96,156,70970,2,0,B|72:220,1,50,8|0
124,240,71595,2,0,B|184:256|232:248|236:248,1,99.9999999999999,0|8
212,128,72845,6,0,B|256:164|320:152,1,99.9999999999999,2|8
364,148,73782,1,0
420,128,74095,2,0,B|428:180|480:196,1,74.9999999999999,2|2
448,276,75032,1,2
392,292,75345,6,0,B|320:300|224:292,1,150,0|2
184,280,76595,1,0
184,280,77220,1,8
84,212,77845,2,0,B|152:168|156:72,1,150,2|0
152,28,79095,1,2
152,28,79720,1,8
152,28,80345,1,2
284,60,90345,6,0,B|256:104|180:100,1,99.9999999999999,2|8
104,176,91595,2,0,B|168:204|168:264,1,99.9999999999999,2|8
288,260,92845,2,0,B|308:208|372:196,1,99.9999999999999,2|8
380,140,93782,1,0
412,88,94095,6,0,B|424:132|476:140,2,74.9999999999999,2|0|2
352,76,95345,2,0,B|292:132|192:108,1,150,0|2
152,96,96595,1,0
152,96,97220,1,8
88,196,97845,6,0,B|184:184|240:260,1,150,0|2
268,284,99095,1,0
268,284,99720,1,8
380,236,100345,6,0,B|388:148|484:128,1,150
372,64,101907,2,0,B|440:52,1,50,0|8
340,144,102845,2,0,B|280:92|196:104,1,150
276,12,104407,2,0,B|208:20,1,50,0|8
328,84,105345,6,0,B|312:152|324:244,1,150
248,328,106907,2,0,B|200:276,3,50,0|8|2|0
144,192,108470,6,0,B|204:168,1,50,8|2
116,208,109095,6,0,B|52:212,1,50,0|2
120,176,109720,6,0,B|100:108,2,50,8|2|4
220,240,110970,6,0,B|228:308,2,50,8|0|0
236,120,112220,1,8
340,60,112845,2,0,B|280:24,2,50,0|0|8
396,36,113782,2,0,B|384:132|472:168,1,150,2|8
464,280,115345,6,0,B|396:248|300:256,1,150,0|2
200,272,116907,1,2
120,180,117532,1,4
256,192,118157,12,0,120345
76,204,130345,6,0,B|96:128|208:116,1,150,0|2
308,124,131907,1,0
308,124,132220,1,8
224,208,132845,2,0,B|268:272|360:268,1,150,0|2
472,252,134407,1,0
472,252,134720,1,8
484,132,135345,6,0,B|416:136|368:124,1,99.9999999999999,0|8
336,92,136282,2,0,B|288:60|224:72,2,99.9999999999999,0|0|4
376,204,138157,2,0,B|312:220,1,50,0|8
208,232,139095,2,0,B|252:184,2,50,0|0|8
88,212,140345,6,0,B|156:168|160:72,1,150,0|2
152,28,141595,1,0
152,28,142220,5,8
208,48,142532,1,0
268,44,142845,1,2
256,284,144095,6,0,B|304:308|352:300,1,99.9999999999999,0|8
456,236,145345,2,0,B|400:180|424:76,1,150,2|2
419,96,146595,2,0,B|364:120|304:104,1,99.9999999999999,0|8
204,84,147845,2,0,B|144:136|40:120,2,150,2|0|8
256,192,150345,6,0,B|276:268|384:260,1,150,0|2
432,248,151595,1,0
444,128,152220,1,8
388,20,152845,6,0,B|352:88|252:84,1,150,0|2
200,76,154095,1,2
192,164,154563,1,2
104,136,155032,1,2
104,136,155345,6,0,B|116:256,1,99.9999999999999,0|8
232,220,156595,2,0,B|316:152,1,99.9999999999999,0|8
364,48,157845,2,0,B|464:104,1,99.9999999999999,0|8
448,216,159095,2,0,B|472:284,2,50,2|0|8
332,192,160345,6,0,B|240:232|124:212,1,200,2|0
204,116,162220,1,8
108,44,162845,2,0,B|204:0|316:24,1,200,2|0
248,128,164720,1,8
276,244,165345,6,0,B|368:272|484:260,1,200,2|0
396,168,167220,1,8
488,92,167845,2,0,B|392:60|284:72,1,200,2|0
156,288,170345,6,0,B|172:232|132:172,1,99.9999999999999,0|8
184,80,171595,2,0,B|224:116|296:104,1,99.9999999999999,0|8
364,188,172845,2,0,B|416:192|448:156,2,74.9999999999999,0|2|0
316,220,174095,2,0,B|272:208|232:216,2,74.9999999999999,0|2|0
352,268,175345,6,0,B|372:164|336:64,1,200,2|0
220,56,177220,1,8
176,168,177845,6,0,B|140:120|92:116,4,99.9999999999999,0|8|2|8|4
292,192,180970,1,8
292,192,181282,2,0,B|356:144|448:152,1,150,0|8
452,268,182845,2,0,B|384:288,1,50,0|2
344,292,183470,1,8
288,276,183782,2,0,B|240:216|140:232,1,150,2|8
44,284,185345,5,0
56,164,185970,1,8
56,164,186282,2,0,B|108:112|212:116,1,150,2|8
276,204,187845,2,0,B|336:208|384:156,1,99.9999999999999,0|8
360,112,188782,2,0,B|364:192|408:272,1,150,2|8
288,300,190345,6,0,B|268:216|180:196,1,150
72,168,191907,2,0,B|108:120,4,50,0|8|2|0|2
52,288,193782,2,0,B|132:308|216:300,1,150,2|8
320,320,195345,2,0,B|288:248|304:164,1,150,0|2
336,60,196907,1,2
224,104,197532,2,0,B|156:136|64:124,1,150,4|8
60,244,199095,1,0
60,244,199720,1,8
60,244,200345,6,0,B|132:268|228:256,1,150,0|2
324,232,201907,2,0,B|388:256,1,50,0|8
464,172,202845,2,0,B|392:140|380:40,1,150,0|2
264,68,204407,2,0,B|196:80,1,50,0|8
256,192,205345,12,0,207845
