osu file format v5

[General]
AudioFilename: Kevin Rudolf ft. Lil' Wayne - Let It Rock (Dirty).mp3
AudioLeadIn: 0
PreviewTime: -1
Countdown: 1
SampleSet: Normal
StackLeniency: 0.7
Mode: 0
LetterboxInBreaks: 1
SkinPreference:EliteBeatOsu

[Metadata]
Title:Let It Rock
Artist:Kevin Rudolf ft Lil Wayne
Creator:m980
Version:HARD ROCK!
Source:
Tags:

[Difficulty]
HPDrainRate:7
CircleSize:4
OverallDifficulty:8
SliderMultiplier:1.7
SliderTickRate:2

[Events]
//Background and Video events
0,0,"Letitrock.png"
//Break Periods
2,25091,41785
2,60448,71785
2,111877,118928
2,133305,144642
//Storyboard Layer 0 (Background)
//Storyboard Layer 1 (Failing)
//Storyboard Layer 2 (Passing)
//Storyboard Layer 3 (Foreground)
//Storyboard Sound Samples
//Background Colour Transformations
3,100,163,162,255

[TimingPoints]
6677,535.714285714286,4,1,0,100,1

[HitObjects]
336,320,8819,2,2,B|256:368|168:320,1,170
96,296,9623,1,0
56,224,9891,2,2,B|8:144|56:56,1,170
128,112,10694,1,4
512,40,11230,6,0,B|328:40,1,170
256,40,12034,1,0
208,112,12302,1,0
168,184,12569,1,4
128,256,12837,1,0
176,320,13105,6,2,B|256:368|344:320,1,170
416,296,13909,1,0
456,224,14177,2,2,B|504:144|456:56,1,170
384,112,14980,1,0
0,40,15516,6,2,B|184:40,1,170
256,40,16320,1,0
288,120,16588,1,0
320,200,16855,1,4
352,280,17123,1,0
433,308,17391,6,2,B|521:193|429:68,1,255
376,136,18462,1,0
176,48,19266,6,2,B|256:0|352:56,1,170
300,125,20069,1,0
212,125,20337,1,0
256,200,20605,2,0,B|256:384,1,170,0|4
79,308,21677,6,0,B|16:232|80:136,1,170,4|0
136,208,22480,1,0
160,288,22748,1,4
352,288,23284,5,0
376,208,23552,1,0
441,151,23820,2,0,B|496:232|433:308,2,170,4|0|4
256,344,43105,5,2
328,64,43641,1,2
256,16,43909,1,2
184,64,44177,1,2
432,336,44712,5,0
488,272,44980,2,2,B|544:192|480:96,1,170
432,48,45784,1,0
432,48,46052,1,0
376,112,46319,2,4,B|321:191|377:271,1,170
256,40,47391,5,2
184,320,47927,1,2
256,368,48195,1,2
328,320,48463,1,2
48,288,49266,6,2,B|0:208|48:120,1,170
96,56,50069,1,0
96,56,50337,1,0
176,96,50605,5,0
256,128,50873,2,0,B|360:128,2,85,4|0|4
256,216,51677,5,2
504,232,52480,1,2
504,152,52748,1,2
8,192,53552,1,2
256,352,54087,5,0
184,304,54355,2,2,B|96:304,2,85
256,264,55159,1,0
320,208,55427,1,0
256,152,55694,1,0
256,64,55962,5,4
64,64,56498,5,0
64,152,56766,1,0
64,240,57034,1,4
448,64,57569,5,0
448,152,57837,1,0
448,240,58105,2,0,B|408:328|296:328,2,170,4|0|4
472,304,73105,6,2,B|400:384|320:296,1,170
400,264,73909,1,0
472,224,74177,2,2,B|400:144|320:232,1,170
248,264,74980,1,0
176,312,75248,6,4,B|165:410|-43:418|-11:210|85:210,1,340
368,176,76587,5,0
448,176,76855,1,0
408,104,77123,2,2,B|256:-32|96:112,2,340
144,208,80873,5,0
64,208,81141,1,0
104,280,81409,2,2,B|256:416|416:272,2,340
211,233,85159,5,0
299,233,85427,1,0
335,157,85694,2,2,B|255:101|159:165,3,170
96,304,87837,2,2,B|256:408|432:296,1,340
296,184,89444,5,0
216,184,89712,1,0
176,112,89980,2,2,B|256:56|352:120,3,170
256,192,92391,12,4,93998
256,344,94534,5,2
184,64,95070,1,2
256,16,95338,1,2
328,64,95606,1,2
80,336,96141,5,0
24,272,96409,2,2,B|-32:192|32:96,1,170
80,48,97213,1,0
80,48,97481,1,0
136,112,97748,2,4,B|191:191|135:271,1,170
256,40,98820,5,2
328,320,99356,1,2
256,368,99624,1,2
184,320,99892,1,2
464,288,100695,6,2,B|512:208|464:120,1,170
416,56,101498,1,0
416,56,101766,1,0
336,96,102034,5,0
256,128,102302,2,0,B|152:128,2,85,4|0|4
256,216,103106,5,2
8,232,103909,1,2
8,152,104177,1,2
504,192,104981,1,2
256,352,105516,5,0
328,304,105784,2,2,B|416:304,2,85
256,264,106588,1,0
192,208,106856,1,0
256,152,107123,1,0
256,64,107391,5,4
448,64,107927,5,0
448,152,108195,1,0
448,240,108463,1,4
64,64,108998,5,0
64,152,109266,1,0
64,240,109534,2,0,B|104:328|216:328,2,170,4|0|4
496,360,120248,5,4
496,128,120784,5,0
440,192,121052,1,0
384,128,121319,2,2,B|336:32|244:25,1,170
16,360,122391,5,4
16,128,122927,5,0
72,192,123195,1,0
128,128,123462,2,2,B|176:32|268:25,1,170
496,360,124534,5,4
256,136,125337,5,0
328,184,125605,2,2,B|256:264|176:176,1,170
144,256,126409,1,0
216,296,126677,2,2,B|312:320|392:232,1,170
16,192,127748,6,4,B|16:16,1,170
496,360,128819,5,0
496,272,129087,1,0
423,316,129355,1,2
16,360,129891,5,0
16,272,130159,1,0
89,316,130427,1,2
300,350,130962,5,0
212,350,131230,1,0
256,277,131498,2,2,B|256:101,1,170
211,35,132302,1,0
299,35,132569,1,4
512,328,145962,6,2,B|440:400|360:328,1,170
360,248,146766,1,0
360,168,147034,2,2,B|280:104|200:168,1,170
208,248,147837,1,4
40,360,148373,6,2,B|40:176,1,170
112,144,149177,1,0
184,104,149444,1,0
256,64,149712,1,4
328,24,149980,1,0
400,64,150248,6,2,B|472:136|392:224,1,170
344,280,151052,1,0
264,304,151319,2,2,B|184:368|96:296,1,170
152,232,152123,1,0
0,72,152659,5,0
64,16,152927,1,0
128,72,153194,1,0
192,16,153462,1,0
256,72,153730,2,0,B|336:144|256:224,1,170,0|2
208,152,154534,5,0
448,152,155069,1,0
504,216,155337,1,0
448,280,155605,2,2,B|392:352|280:352,1,170
216,352,156409,5,0
296,144,156944,1,0
328,224,157212,1,0
256,272,157480,1,0
184,224,157748,1,4
216,144,158016,1,0
56,144,158284,6,2,B|0:224|64:304,1,170
456,144,159355,6,2,B|512:224|448:304,1,170
256,192,160427,12,4,163105
472,344,163641,5,0
496,264,163909,1,0
472,184,164177,2,2,B|392:120|304:184,1,170
256,320,164980,5,2
96,224,165516,1,0
40,152,165784,1,0
96,80,166052,2,0,B|168:0|248:80,1,170
168,120,166855,1,4
216,192,167123,1,0
296,160,167391,6,2,B|312:264|424:232,1,170
376,160,168194,1,0
337,88,168462,2,2,B|445:57|461:161,1,170
504,240,169266,5,4
200,360,169802,2,2,B|104:360,2,85
256,296,170605,1,0
312,232,170873,2,2,B|408:232,2,85
176,168,171677,6,4,B|104:248|24:160,1,170
104,120,172480,1,0
32,80,172748,2,4,B|105:-2|177:78,1,170,4|4
248,120,173552,6,2,B|432:120,1,170
480,184,174355,1,0
400,216,174623,1,0
320,248,174891,1,0
240,280,175159,1,2
160,312,175427,1,2
80,344,175694,1,2
256,192,175962,12,4,182391
