osu file format v9

[General]
AudioFilename: 1276278303_kevin_rudolf___you_make_the_rain_fall__feat__flo_rida____hotnewhiphop_com.mp3
AudioLeadIn: 0
PreviewTime: -1
Countdown: 3
SampleSet: Soft
StackLeniency: 0.7
Mode: 0
LetterboxInBreaks: 1

[Editor]
Bookmarks: 94077
DistanceSpacing: 0.8
BeatDivisor: 3
GridSize: 32

[Metadata]
Title:You Make The Rain Fall (Feat. Flo Rida)
Artist:Kevin Rudolf
Creator:Sy[K]es
Version:Normal
Source:
Tags:

[Difficulty]
HPDrainRate:0
CircleSize:3
OverallDifficulty:5
ApproachRate:0
SliderMultiplier:0.9
SliderTickRate:1

[Events]
//Background and Video events
0,0,"kevin-rudolf_to-the-sky.jpg"
//Break Periods
//Storyboard Layer 0 (Background)
//Storyboard Layer 1 (Fail)
//Storyboard Layer 2 (Pass)
//Storyboard Layer 3 (Foreground)
//Storyboard Sound Samples
//Background Colour Transformations
3,100,163,162,255

[TimingPoints]
9188.33333333333,444.444444444444,4,2,1,80,1,0

[Colours]
Combo1 : 172,189,191
Combo2 : 102,251,106
Combo3 : 101,101,252
Combo4 : 252,131,131
Combo5 : 255,196,106

[HitObjects]
128,96,9188,5,0
192,96,9632,1,8
256,96,10077,1,0
320,96,10521,1,8
320,160,10966,1,0
320,224,11410,5,8
256,192,11854,1,0
192,160,12299,1,8
128,192,12743,1,0
128,256,13188,1,8
128,320,13632,5,0
192,320,14077,1,8
288,320,14521,5,0
352,288,14966,1,8
352,224,15410,1,2
288,192,15854,1,8
352,160,16299,1,0
256,96,16743,6,0,B|160:64,1,90
96,64,17632,6,0,B|96:160,1,90
128,224,18521,2,0,B|224:224,1,90
256,160,19410,2,2,B|320:96,1,90
384,128,20299,2,2,B|448:192,1,90
384,256,21188,1,2
288,224,21632,5,2
224,160,22077,1,2
160,224,22521,1,2
160,96,22966,5,2
224,32,23410,1,2
288,96,23855,1,2
288,192,24299,1,2
224,256,24743,1,2
192,128,25188,5,2
96,96,25632,1,2
96,192,26077,1,2
128,288,26521,5,0
192,224,26966,1,0
256,288,27410,5,0
384,320,27855,1,0
320,224,28299,1,0
192,224,28743,5,0
128,192,29188,1,0
160,128,29632,1,0
224,160,30077,6,0,B|320:224,2,90
224,160,31410,5,8
160,224,31855,1,8
96,160,32299,1,8
32,96,32743,1,8
160,64,33188,5,8
288,64,33632,1,8
224,160,34077,1,8
352,128,34521,1,8
288,224,34966,1,8
352,288,35410,5,8
256,320,35855,1,8
160,288,36299,1,8
160,192,36743,1,8
160,96,37188,2,8,B|224:96,1,60
256,160,38077,5,8
288,224,38521,1,8
320,288,38966,1,8
384,256,39410,1,8
416,192,39855,5,8
320,128,40299,1,8
224,64,40743,1,8
128,64,41188,1,8
64,160,41632,1,8
96,256,42077,5,8
192,224,42521,1,8
288,288,42966,6,8,B|384:256|384:160|352:64|288:32,1,300
96,96,45188,5,8
96,192,45632,1,8
160,256,46077,1,8
256,256,46521,1,8
320,192,46966,1,8
224,160,47410,5,8
288,96,47854,1,8
384,64,48299,1,8
352,160,48743,1,8
288,224,49188,1,8
288,224,49632,1,8
224,160,50077,1,8
160,224,50521,1,8
128,128,50966,5,8
32,160,51410,1,8
64,256,51854,1,8
160,320,52299,1,8
224,256,52743,1,8
320,224,53188,5,8
256,160,53632,1,8
192,96,54077,5,8
96,64,54521,1,8
64,160,54966,1,8
160,192,55410,1,8
128,288,55854,1,8
256,320,56299,5,8
352,256,56743,1,8
256,192,57188,1,8
320,96,57632,1,8
192,64,58077,5,8
128,160,58521,1,8
128,160,58966,1,8
224,192,59410,1,8
352,224,59854,1,8
256,288,60299,5,8
128,256,60743,5,8
160,160,61188,1,8
256,128,61632,1,8
256,128,62077,1,8
384,160,62521,5,8
384,256,62966,1,8
288,224,63410,1,8
384,160,63854,1,8
288,128,64299,1,8
224,64,64743,5,8
160,128,65188,1,8
64,96,65632,5,8
96,192,66077,1,8
192,224,66521,1,8
256,288,66966,2,8,B|352:224,1,90
352,160,67854,2,8,B|288:96,1,90
224,96,68743,6,8,B|160:160,1,90,8|8
192,224,69632,6,2,B|288:288,1,90
266,273,70521,6,2,B|352:224,1,90
352,192,71410,6,2,B|320:96,1,90
256,32,72299,1,8
160,96,72743,1,8
224,160,73188,1,8
128,160,73632,1,8
160,256,74077,5,8
256,288,74521,1,8
320,224,74966,5,8
256,128,75410,1,8
224,32,75854,1,8
320,224,76299,5,8
224,256,76743,1,8
128,224,77188,1,8
128,128,77632,5,8
224,96,78077,1,8
320,128,78521,1,8
224,192,78966,5,8
320,256,79410,1,8
224,288,79854,1,8
128,256,80299,5,8
96,96,80743,1,8
256,160,81188,1,8
160,224,81632,5,8
224,288,82077,1,8
320,256,82521,1,8
384,160,82966,5,8
288,128,83410,1,8
384,64,83854,1,8
256,32,84299,5,8
160,96,84743,1,8
96,32,85188,5,8
32,128,85632,1,8
128,160,86077,1,8
32,224,86521,1,8
128,288,86966,5,8
256,288,87410,1,8
256,288,87854,1,8
256,288,88299,1,8
256,192,88743,5,8
160,160,89188,1,8
224,96,89632,1,8
288,32,90077,1,8
352,64,90521,5,8
384,160,90966,1,8
288,192,91410,1,8
352,256,91854,1,8
256,256,92299,1,8
128,224,92743,5,8
160,320,93188,1,8
256,256,93632,1,8
160,224,94077,1,8
256,192,94521,1,0
352,224,94966,1,0
288,128,95410,5,0
416,128,95854,5,0
352,64,96299,1,0
320,128,96743,1,0
416,128,97188,1,0
384,224,97632,5,0
256,288,98077,1,0
128,224,98521,1,0
96,96,98966,5,0
192,128,99410,1,0
288,96,99854,1,0
384,96,100299,5,8
320,192,100743,5,8
224,160,101188,1,8
128,128,101632,1,8
64,192,102077,1,8
160,256,102521,1,8
320,224,102966,5,8
320,128,103410,1,8
320,128,103854,1,8
224,128,104299,1,8
160,64,104743,5,8
64,128,105188,1,8
160,160,105632,1,8
64,224,106077,1,8
160,288,106521,1,8
288,256,106966,1,8
288,128,107410,1,8
192,192,107854,1,8
224,64,108299,1,8
192,192,108743,5,8
128,64,109188,1,8
192,192,109632,1,8
64,160,110077,1,8
256,160,110521,6,0,B|256:64,1,90
256,160,111410,2,0,B|352:224,1,90
256,160,112299,2,0,B|160:224,1,90
256,160,113188,6,0,B|256:64,1,90
256,160,114077,5,0
352,160,114521,1,0
384,256,114966,1,0
288,256,115410,1,0
224,320,115854,1,0
160,256,116299,5,0
64,256,116743,1,0
128,160,117188,1,0
128,160,117632,1,0
224,160,118077,1,0
192,64,118521,1,0
192,64,118966,1,0
320,64,119410,5,0
288,160,119854,1,0
192,224,120299,1,0
288,224,120743,1,0
256,128,121188,1,0
160,96,121632,5,0
64,128,122077,5,0
96,224,122521,1,0
192,192,122966,1,0
256,256,123410,1,0
288,160,123854,1,0
288,160,124299,5,0
160,128,124743,1,0
160,128,125188,1,0
256,64,125632,1,0
160,128,126077,1,0
192,192,126521,6,0,B|224:256|320:224,1,120
320,64,127854,1,0
224,96,128299,1,0
288,160,128743,1,0
192,160,129188,1,0
288,256,129632,5,0
192,256,130077,1,0
192,256,130521,1,0
96,192,130966,1,0
96,192,131410,1,0
128,96,131854,5,0
128,96,132299,1,0
224,96,132743,5,0
224,96,133188,1,0
320,96,133632,1,0
320,96,134077,1,0
352,192,134521,1,0
256,192,134966,5,8
256,192,135410,1,8
352,192,135854,1,8
352,192,136299,1,8
288,128,136743,1,8
288,128,137188,1,8
384,128,137632,1,8
384,128,138077,1,8
352,64,138521,5,8
352,64,138966,1,8
288,96,139410,1,8
224,64,139854,1,8
160,64,140299,1,8
128,128,140743,1,8
64,160,141188,1,8
128,256,141632,5,8
224,288,142077,1,8
320,288,142521,1,8
384,224,142966,1,8
384,128,143410,5,8
384,128,143854,1,8
384,128,144299,1,8
448,32,144743,2,0,B|352:32,1,90
256,32,145632,2,0,B|160:32,1,90
64,32,146521,2,0,B|64:128,1,90
160,128,147410,2,0,B|256:134,2,90
256,192,148892,12,0,151854
288,96,152743,5,0
192,128,153188,1,0
288,192,153632,1,0
192,224,154077,1,0
288,288,154521,1,0
192,320,154966,1,0
96,224,155410,5,0
192,192,155854,1,0
256,256,156299,1,0
192,352,156743,1,0
192,256,157188,1,0
320,288,157632,5,0
320,288,158077,2,0,B|320:192,1,90
320,160,158966,1,0
320,128,159410,1,0
288,128,159854,1,0
128,128,160299,5,0
64,128,160743,1,0
96,192,161188,1,0
96,192,161632,2,0,B|128:256|192:288|224:288,1,150
