osu file format v14

[General]
AudioFilename: audio.mp3
AudioLeadIn: 0
PreviewTime: 1878
Countdown: 0
SampleSet: None
StackLeniency: 0.7
Mode: 0
LetterboxInBreaks: 1
WidescreenStoryboard: 0

[Editor]
DistanceSpacing: 0.8
BeatDivisor: 4
GridSize: 8
TimelineZoom: 1.9

[Metadata]
Title:Invader Zim Theme Song
TitleUnicode:Invader Zim Theme Song
Artist:Kevin Manthei
ArtistUnicode:Kevin Manthei
Creator:Stingy
Version:Hard
Source:Invader Zim
Tags:Cartoon TV Instrumental English
BeatmapID:1208660
BeatmapSetID:570167

[Difficulty]
HPDrainRate:7
CircleSize:3.5
OverallDifficulty:6.5
ApproachRate:7.5
SliderMultiplier:1.8
SliderTickRate:1

[Events]
//Background and Video events
0,0,"35995.jpg",0,0
//Break Periods
//Storyboard Layer 0 (Background)
//Storyboard Layer 1 (Fail)
//Storyboard Layer 2 (Pass)
//Storyboard Layer 3 (Foreground)
//Storyboard Sound Samples

[TimingPoints]
129.709212858766,499.583680266445,4,3,1,50,1,0
2128,-100,4,3,1,50,0,0
18114,-100,4,3,1,50,0,0
30104,-90.9090909090909,4,3,1,60,0,1
36099,-90.9090909090909,4,3,1,40,0,1
36599,-111.111111111111,4,3,1,40,0,1
37098,-142.857142857143,4,3,1,35,0,1
37598,-142.857142857143,4,3,1,35,0,0

[Colours]
Combo1 : 203,64,255
Combo2 : 235,255,174
Combo3 : 188,22,171
Combo4 : 255,0,0
Combo5 : 243,159,255

[HitObjects]
88,168,2128,6,0,P|128:136|176:112,1,90,2|0,0:0|0:0,0:0:0:0:
288,72,2627,1,8,0:0:0:0:
336,200,2877,1,0,0:0:0:0:
336,200,3002,1,0,0:0:0:0:
336,200,3127,2,0,P|296:232|248:256,1,90
136,296,3626,1,8,0:0:0:0:
88,168,3876,1,0,0:0:0:0:
88,168,4001,1,0,0:0:0:0:
88,168,4126,6,0,L|176:208,1,90,2|0,0:0|0:0,0:0:0:0:
291,265,4625,1,8,0:0:0:0:
320,136,4875,1,0,0:0:0:0:
328,128,5000,1,0,0:0:0:0:
336,120,5125,2,0,L|392:96,2,45
216,176,5625,1,8,0:0:0:0:
112,112,5874,1,0,0:0:0:0:
112,112,5999,1,0,0:0:0:0:
112,112,6124,6,0,P|88:168|88:224,1,90,2|0,0:0|0:0,0:0:0:0:
112,320,6624,1,8,0:0:0:0:
176,208,6874,1,0,0:0:0:0:
184,216,6998,1,0,0:0:0:0:
192,224,7123,2,0,L|200:272,2,45
168,88,7623,1,8,0:0:0:0:
280,136,7873,1,0,0:0:0:0:
280,136,7998,1,0,0:0:0:0:
280,136,8123,6,0,B|328:152|328:152|352:184,1,90,2|0,0:0|0:0,0:0:0:0:
416,304,8622,2,0,B|432:256|432:256|464:232,1,90,2|8,0:0|0:0,0:0:0:0:
472,96,9122,2,0,B|456:144|456:144|424:168,2,90,2|10|2,0:0|0:0|0:0,0:0:0:0:
320,256,10121,6,0,P|280:272|208:240,1,90,2|0,0:0|0:0,0:0:0:0:
136,184,10620,1,8,0:0:0:0:
280,192,10870,1,0,0:0:0:0:
280,192,10995,1,0,0:0:0:0:
280,192,11120,2,0,P|296:152|264:80,1,90
208,8,11619,1,8,0:0:0:0:
120,104,11869,1,0,0:0:0:0:
120,104,11994,1,0,0:0:0:0:
120,104,12119,6,0,B|112:152|112:152|120:200,1,90,2|0,0:0|0:0,0:0:0:0:
144,320,12619,1,8,0:0:0:0:
240,232,12869,1,0,0:0:0:0:
248,224,12993,1,0,0:0:0:0:
256,216,13118,2,0,L|256:264,2,45
256,88,13618,1,8,0:0:0:0:
352,176,13868,1,0,0:0:0:0:
352,176,13993,1,0,0:0:0:0:
352,176,14118,6,0,L|440:208,1,90,2|0,0:0|0:0,0:0:0:0:
440,336,14617,1,8,0:0:0:0:
328,272,14867,1,0,0:0:0:0:
328,272,14992,1,0,0:0:0:0:
328,272,15117,2,0,L|240:240,1,90
240,112,15616,1,8,0:0:0:0:
352,176,15866,1,0,0:0:0:0:
352,176,15991,1,0,0:0:0:0:
352,176,16116,6,0,L|360:80,1,90,2|0,0:0|0:0,0:0:0:0:
247,22,16615,2,0,L|239:118,1,90,2|8,0:0|0:0,0:0:0:0:
264,240,17115,1,2,0:0:0:0:
112,176,17365,1,0,0:0:0:0:
144,328,17615,1,0,0:0:0:0:
204,152,18114,6,0,P|220:104|236:224,1,450,4|0,0:0|0:0,0:0:0:0:
152,240,19613,2,0,L|136:288,2,45
64,160,20113,2,0,P|40:208|32:256,1,90,4|0,0:0|0:0,0:0:0:0:
106,366,20612,2,0,P|130:318|138:270,1,90
64,160,21112,2,0,P|112:136|160:128,1,90
137,282,21611,2,0,P|176:303|220:313,1,90
344,248,22111,6,0,B|384:216|384:216|472:208|504:280|504:280|440:304|424:376|424:376|376:328|288:320,1,450,4|0,0:0|0:0,0:0:0:0:
220,313,23610,2,0,L|196:353,2,45
272,192,24109,2,0,B|248:152|248:152|184:144,1,90,4|0,0:0|0:0,0:0:0:0:
152,267,24609,2,0,B|176:307|176:307|240:315,1,90
344,280,25108,2,0,L|384:200,1,90
320,88,25608,2,0,L|280:168,1,90
142,197,26108,6,0,B|94:181|94:181|46:197|46:197|30:125|118:61|198:109|198:109|262:69|342:93,1,450,4|0,0:0|0:0,0:0:0:0:
432,120,27606,2,0,L|480:144,2,45
256,192,28106,12,10,29605,0:0:0:0:
48,152,30104,5,12,0:0:0:0:
160,248,30354,1,0,0:0:0:0:
192,104,30604,1,2,0:0:0:0:
304,208,30854,1,0,0:0:0:0:
312,224,30979,1,0,0:0:0:0:
320,240,31103,2,0,P|296:288|248:328,1,99.0000030212403,12|0,0:0|0:0,0:0:0:0:
112,376,31603,1,2,0:0:0:0:
160,248,31853,1,0,0:0:0:0:
168,232,31978,1,0,0:0:0:0:
176,216,32103,6,0,P|200:168|248:128,1,99.0000030212403,12|0,0:0|0:0,0:0:0:0:
384,80,32603,1,2,0:0:0:0:
440,216,32852,2,0,L|440:272,2,49.5000015106202,0|0|12,0:0|0:0|0:0,0:0:0:0:
488,80,33352,1,2,0:0:0:0:
360,168,33601,2,0,P|328:176|288:176,1,49.5000015106202,0|2,0:0|0:0,0:0:0:0:
280,146,33851,2,0,P|248:138|208:138,1,49.5000015106202,0|2,0:0|0:0,0:0:0:0:
192,152,34101,6,0,B|184:200|184:200|192:256,2,99.0000030212403,12|0|2,0:0|0:0|0:0,0:0:0:0:
112,32,34850,1,0,0:0:0:0:
112,56,34975,1,0,0:0:0:0:
112,80,35100,2,0,B|120:128|120:128|112:184,2,99.0000030212403,12|0|2,0:0|0:0|0:0,0:0:0:0:
16,176,35849,2,0,L|8:240,1,49.5000015106202,0|2,0:0|0:0,0:0:0:0:
24,264,36099,6,0,L|16:320,2,49.5000015106202,8|0|0,0:0|0:0|0:0,0:0:0:0:
160,288,36599,2,0,L|168:232,2,40.4999987640381
272,344,37098,1,8,0:0:0:0:
296,350,37223,1,0,0:0:0:0:
321,351,37348,1,0,0:0:0:0:
345,344,37473,1,0,0:0:0:0:
365,329,37598,5,14,0:0:0:0:
