osu file format v14

[General]
AudioFilename: audio.mp3
AudioLeadIn: 0
PreviewTime: 1878
Countdown: 0
SampleSet: None
StackLeniency: 0.7
Mode: 0
LetterboxInBreaks: 1
WidescreenStoryboard: 0

[Editor]
DistanceSpacing: 1.3
BeatDivisor: 4
GridSize: 8
TimelineZoom: 1.9

[Metadata]
Title:Invader Zim Theme Song
TitleUnicode:Invader Zim Theme Song
Artist:Kevin Manthei
ArtistUnicode:Kevin Manthei
Creator:Stingy
Version:Advanced
Source:Invader Zim
Tags:Cartoon TV Instrumental English
BeatmapID:1208622
BeatmapSetID:570167

[Difficulty]
HPDrainRate:5
CircleSize:3.3
OverallDifficulty:5.5
ApproachRate:6
SliderMultiplier:1.4
SliderTickRate:1

[Events]
//Background and Video events
0,0,"35995.jpg",0,0
//Break Periods
//Storyboard Layer 0 (Background)
//Storyboard Layer 1 (Fail)
//Storyboard Layer 2 (Pass)
//Storyboard Layer 3 (Foreground)
//Storyboard Sound Samples

[TimingPoints]
129.709212858766,499.583680266445,4,3,1,50,1,0
2128,-100,4,3,1,50,0,0
18114,-100,4,3,1,30,0,0
29605,-100,4,3,1,50,0,0
30104,-90.9090909090909,4,3,1,60,0,1
36099,-83.3333333333333,4,3,1,60,0,1
37598,-100,4,3,1,50,0,0

[Colours]
Combo1 : 203,64,255
Combo2 : 235,255,174
Combo3 : 188,22,171
Combo4 : 255,0,0
Combo5 : 243,159,255

[HitObjects]
36,78,2128,6,0,P|75:62|125:58,1,70,4|0,0:0|0:0,0:0:0:0:
193,56,2627,1,8,0:0:0:0:
278,88,2877,2,0,L|287:137,1,35,2|2,0:0|0:0,0:0:0:0:
299,165,3127,2,0,P|338:181|388:185,1,70
456,182,3626,1,8,0:0:0:0:
434,270,3876,2,0,L|425:319,1,35,2|2,0:0|0:0,0:0:0:0:
413,347,4126,6,0,P|374:363|324:367,1,70
255,370,4625,2,0,L|160:356,1,70,8|0,0:0|0:0,0:0:0:0:
95,346,5125,1,0,0:0:0:0:
161,283,5375,2,0,P|176:245|171:187,1,70,0|8,0:0|0:0,0:0:0:0:
157,127,5874,2,0,L|144:80,1,35,2|2,0:0|0:0,0:0:0:0:
164,50,6124,6,0,P|207:27|259:29,1,70
318,28,6624,1,8,0:0:0:0:
387,86,6874,2,0,L|421:86,2,35,2|0|0,0:0|0:0|0:0,0:0:0:0:
306,128,7373,2,0,L|297:205,1,70,0|8,0:0|0:0,0:0:0:0:
286,288,7873,1,0,0:0:0:0:
214,231,8123,6,0,P|184:212|142:206,1,70,8|0,0:0|0:0,0:0:0:0:
86,270,8622,2,0,P|116:289|158:295,1,70,8|0,0:0|0:0,0:0:0:0:
224,347,9122,2,0,P|258:340|287:321,2,70,8|2|10,0:0|0:0|0:0,0:0:0:0:
224,255,9871,2,0,L|236:207,1,35,2|2,0:0|0:0,0:0:0:0:
248,178,10121,6,0,P|282:184|311:203,2,70,0|0|8,0:0|0:0|0:0,0:0:0:0:
157,185,10870,2,0,L|145:137,1,35,2|2,0:0|0:0,0:0:0:0:
133,108,11120,2,0,P|98:114|69:133,1,70
13,205,11620,1,8,0:0:0:0:
7,295,11869,2,0,L|50:311,1,35,2|2,0:0|0:0,0:0:0:0:
83,320,12119,6,0,P|118:314|147:295,1,70
190,215,12619,2,0,P|184:180|165:151,1,70,8|0,0:0|0:0,0:0:0:0:
101,215,13118,1,0,0:0:0:0:
146,295,13368,2,0,L|216:339,1,70,0|8,0:0|0:0,0:0:0:0:
293,307,13868,2,0,L|333:291,1,35,2|2,0:0|0:0,0:0:0:0:
369,280,14118,6,0,P|417:296|450:327,1,70
498,244,14617,2,0,L|489:167,1,70,8|0,0:0|0:0,0:0:0:0:
400,194,15117,2,0,P|352:178|319:147,1,70
271,230,15616,2,0,L|280:307,1,70,8|0,0:0|0:0,0:0:0:0:
203,350,16116,6,0,L|203:307,2,35,10|2|2,0:0|0:0|0:0,0:0:0:0:
288,380,16615,2,0,P|329:363|354:333,1,70,8|8,0:0|0:0,0:0:0:0:
395,267,17115,1,8,0:0:0:0:
420,179,17365,1,8,0:0:0:0:
485,115,17615,1,8,0:0:0:0:
458,292,18114,6,0,B|409:331|324:327|324:327|346:252|301:195|301:195|230:166|168:180|168:180|168:111|74:89|48:149,1,560,4|4,0:0|0:0,0:0:0:0:
30,304,20612,1,0,0:0:0:0:
206,259,21112,1,0,0:0:0:0:
242,81,21611,1,0,0:0:0:0:
65,125,22111,6,0,B|106:172|108:257|108:257|162:232|162:232|230:274|230:274|346:224|360:324|475:313|483:237,1,560,4|4,0:0|0:0,0:0:0:0:
467,65,24609,1,0,0:0:0:0:
301,140,25108,1,0,0:0:0:0:
318,321,25608,1,0,0:0:0:0:
481,246,26108,6,0,B|457:222|422:212|422:212|390:224|362:248|362:248|355:318|262:388|141:315|141:315|162:247|218:230|256:247,1,560,4|4,0:0|0:0,0:0:0:0:
256,192,28356,12,8,29605,0:0:0:0:
55,159,30104,6,0,P|78:193|112:217,1,77.0000023498536,4|0,0:0|0:0,0:0:0:0:
153,232,30479,1,8,0:0:0:0:
202,239,30604,2,0,L|230:284,2,38.5000011749268,2|0|0,0:0|0:0|0:0,0:0:0:0:
228,142,31103,2,0,P|251:108|285:84,1,77.0000023498536,4|0,0:0|0:0,0:0:0:0:
322,177,31603,1,2,0:0:0:0:
389,103,31853,2,0,L|424:67,1,38.5000011749268
466,75,32103,6,0,P|497:128|504:168,1,77.0000023498536,4|0,0:0|0:0,0:0:0:0:
498,192,32477,1,8,0:0:0:0:
465,229,32602,2,0,P|412:260|372:267,1,77.0000023498536,2|2,0:0|0:0,0:0:0:0:
297,272,33102,1,4,0:0:0:0:
201,242,33352,1,8,0:0:0:0:
123,305,33601,2,0,L|130:350,2,38.5000011749268,2|2|2,0:0|0:0|0:0,0:0:0:0:
44,242,34101,6,0,P|28:183|32:143,1,77.0000023498536,4|0,0:0|0:0,0:0:0:0:
50,70,34600,1,8,0:0:0:0:
146,96,34850,2,0,L|186:81,1,38.5000011749268,2|2,0:0|0:0,0:0:0:0:
230,69,35100,2,0,P|246:128|242:168,1,77.0000023498536,4|0,0:0|0:0,0:0:0:0:
224,241,35600,1,8,0:0:0:0:
318,208,35849,2,0,L|358:193,1,38.5000011749268,2|2,0:0|0:0,0:0:0:0:
406,177,36099,6,0,P|417:203|437:224,2,41.9999987182618,12|0|2,0:0|0:0|0:0,0:0:0:0:
450,76,36599,2,0,P|439:50|419:29,2,41.9999987182618,12|0|2,0:0|0:0|0:0,0:0:0:0:
345,108,37098,2,0,P|319:119|298:139,2,41.9999987182618,12|0|2,0:0|0:0|0:0,0:0:0:0:
406,177,37598,5,4,0:0:0:0:
