osu file format v14

[General]
AudioFilename: Shrek 2 - Puss in Boots Boss Battle.mp3
AudioLeadIn: 2000
PreviewTime: 12230
Countdown: 0
SampleSet: Soft
StackLeniency: 0.7
Mode: 0
LetterboxInBreaks: 0
WidescreenStoryboard: 0

[Editor]
Bookmarks: 230,12230,24230,36230,48230,54230,60230,62855
DistanceSpacing: 0.9
BeatDivisor: 2
GridSize: 4
TimelineZoom: 1

[Metadata]
Title:Puss In Boots Hero Time
TitleUnicode:Puss In Boots Hero Time
Artist:Kevin Manthei & Kevin Riepl
ArtistUnicode:Kevin Manthei & Kevin Riepl
Creator:ReFaller
Version:Normal
Source:Shrek 2: The Game
Tags:activision dreamworks OST soundtrack
BeatmapID:677891
BeatmapSetID:302419

[Difficulty]
HPDrainRate:3
CircleSize:3
OverallDifficulty:3
ApproachRate:4
SliderMultiplier:1
SliderTickRate:2

[Events]
//Background and Video events
0,0,"pnb.jpg",0,0
//Break Periods
//Storyboard Layer 0 (Background)
//Storyboard Layer 1 (Fail)
//Storyboard Layer 2 (Pass)
//Storyboard Layer 3 (Foreground)
//Storyboard Sound Samples

[TimingPoints]
230,375,4,2,1,60,1,0
36230,-100,4,2,1,70,0,1
48230,-100,4,2,1,60,0,0
62480,-100,4,2,1,40,0,0
62855,-100,4,2,1,20,0,0

[Colours]
Combo1 : 121,28,0
Combo2 : 255,128,0
Combo3 : 128,64,0

[HitObjects]
360,364,230,5,2,0:0:0:0:
436,316,605,1,0,0:0:0:0:
448,228,980,2,0,P|419:187|377:161,1,100,2|0,0:0|0:0,0:0:0:0:
292,136,1730,1,2,0:0:0:0:
212,176,2105,2,0,P|157:183|104:168,1,100,0|2,0:0|0:0,0:0:0:0:
40,120,2855,1,0,0:0:0:0:
80,40,3230,6,0,L|188:24,2,100,2|0|2,0:0|0:0|0:0,0:0:0:0:
40,120,4354,1,0,0:0:0:0:
36,212,4730,2,0,L|28:328,1,100,2|0,0:0|0:0,0:0:0:0:
112,348,5480,2,0,P|164:336|224:356,1,100,2|0,0:0|0:0,0:0:0:0:
296,332,6230,6,0,L|404:308,2,100,2|0|2,0:0|0:0|0:0,0:0:0:0:
208,346,7354,1,0,0:0:0:0:
176,260,7730,2,0,P|186:210|224:167,2,100,2|0|2,0:0|0:0|0:0,0:0:0:0:
208,346,8854,1,0,0:0:0:0:
256,192,9230,12,0,10542,0:0:0:0:
436,136,12230,6,0,P|395:106|347:92,1,100,2|2,0:0|0:0,0:0:0:0:
256,92,12980,2,0,P|204:108|160:144,1,100,2|2,0:0|0:0,0:0:0:0:
136,220,13729,1,2,0:0:0:0:
80,148,14105,2,0,P|88:96|132:52,2,100,2|2|2,0:0|0:0|0:0,0:0:0:0:
136,220,15229,5,2,0:0:0:0:
48,232,15604,1,2,0:0:0:0:
100,304,15979,1,2,0:0:0:0:
188,296,16354,1,2,0:0:0:0:
272,324,16729,2,0,L|388:324,2,100,2|2|2,0:0|0:0|0:0,0:0:0:0:
188,296,17854,1,2,0:0:0:0:
136,220,18230,6,0,P|130:164|164:120,1,100,2|2,0:0|0:0,0:0:0:0:
220,188,18980,2,0,P|275:182|319:216,1,100,2|2,0:0|0:0,0:0:0:0:
252,272,19730,2,0,P|257:327|224:371,1,100,2|2,0:0|0:0,0:0:0:0:
168,304,20480,2,0,P|112:309|68:276,1,100,2|2,0:0|0:0,0:0:0:0:
48,200,21230,6,0,P|47:144|80:96,1,100,2|2,0:0|0:0,0:0:0:0:
136,168,21980,2,0,P|174:128|232:117,1,100,2|2,0:0|0:0,0:0:0:0:
220,208,22730,2,0,P|275:207|324:240,1,100,2|2,0:0|0:0,0:0:0:0:
252,292,23480,2,0,P|291:330|302:388,1,100,2|2,0:0|0:0,0:0:0:0:
212,372,24230,6,8,P|172:332|160:276,1,100
252,292,24980,2,8,P|234:240|192:204,1,100
112,212,25730,1,8,0:0:0:0:
84,125,26105,1,8,0:0:0:0:
157,72,26480,1,8,0:0:0:0:
230,125,26855,1,8,0:0:0:0:
202,209,27230,6,8,P|202:265|233:313,1,100
308,332,27980,2,8,P|308:277|280:230,1,100
272,148,28730,1,8,0:0:0:0:
259,58,29105,1,8,0:0:0:0:
340,18,29480,1,8,0:0:0:0:
402,83,29855,1,8,0:0:0:0:
359,163,30230,6,8,P|359:219|390:267,1,100
324,328,30980,2,8,P|269:327|222:355,1,100
140,328,31730,2,8,P|140:273|112:226,1,100
176,164,32480,2,8,P|230:164|277:136,1,100
328,76,33230,5,2,0:0:0:0:
328,76,33605,1,2,0:0:0:0:
440,148,34167,1,2,0:0:0:0:
440,148,34542,1,2,0:0:0:0:
336,348,35480,2,0,L|224:360,1,100,0|0,3:0|3:0,0:0:0:0:
148,364,36230,5,2,0:0:0:0:
68,324,36605,1,2,0:0:0:0:
56,236,36980,1,2,0:0:0:0:
112,164,37355,1,0,0:0:0:0:
148,136,37542,2,0,P|191:111|240:111,1,100,2|2,0:0|0:0,0:0:0:0:
284,120,38105,1,0,0:0:0:0:
352,180,38480,2,0,P|368:228|364:280,1,100,2|0,0:0|0:0,0:0:0:0:
288,328,39230,5,2,0:0:0:0:
200,328,39605,1,2,0:0:0:0:
136,268,39980,1,2,0:0:0:0:
108,184,40355,1,0,0:0:0:0:
108,140,40542,2,0,P|132:92|168:64,1,100,2|2,0:0|0:0,0:0:0:0:
212,52,41105,1,0,0:0:0:0:
300,68,41480,1,2,0:0:0:0:
376,116,41855,1,0,0:0:0:0:
380,204,42230,6,0,P|376:252|340:304,1,100,2|2,0:0|0:0,0:0:0:0:
260,312,42980,2,0,P|208:308|160:280,1,100,2|2,0:0|0:0,0:0:0:0:
104,220,43730,2,0,P|94:164|104:120,1,100,2|2,0:0|0:0,0:0:0:0:
180,76,44480,2,0,L|280:60,1,100,2|2,0:0|0:0,0:0:0:0:
368,84,45230,5,2,0:0:0:0:
412,164,45605,1,2,0:0:0:0:
384,252,45980,1,2,0:0:0:0:
304,292,46355,1,2,0:0:0:0:
260,292,46542,2,0,B|212:292|212:292|164:272,1,100,2|2,0:0|0:0,0:0:0:0:
124,252,47105,1,0,0:0:0:0:
48,204,47480,1,2,0:0:0:0:
60,116,47855,1,2,0:0:0:0:
132,64,48230,6,0,P|179:35|237:33,2,100,8|8|8,0:0|0:0|0:0,0:0:0:0:
60,116,49355,1,8,0:0:0:0:
48,204,49730,2,0,L|56:336,2,100,8|8|8,0:0|0:0|0:0,0:0:0:0:
60,116,50855,1,8,0:0:0:0:
132,64,51230,6,0,P|183:44|240:54,1,100,8|8,0:0|0:0,0:0:0:0:
192,132,51980,2,0,P|241:136|287:117,1,100,8|8,0:0|0:0,0:0:0:0:
316,32,52730,2,0,P|367:12|424:22,1,100,8|8,0:0|0:0,0:0:0:0:
472,84,53480,2,0,P|420:103|363:93,1,100,8|8,0:0|0:0,0:0:0:0:
287,117,54230,5,8,0:0:0:0:
244,193,54605,1,8,0:0:0:0:
260,281,54980,1,8,0:0:0:0:
332,337,55355,1,8,0:0:0:0:
420,333,55730,2,0,P|453:290|461:234,1,100,8|8,0:0|0:0,0:0:0:0:
416,168,56480,2,0,P|382:210|373:266,1,100,8|8,0:0|0:0,0:0:0:0:
332,336,57230,6,0,P|289:370|236:380,1,100,8|8,0:0|0:0,0:0:0:0:
256,292,57980,2,0,P|202:283|158:250,1,100,8|8,0:0|0:0,0:0:0:0:
236,204,58730,2,0,P|203:160|196:106,1,100,8|8,0:0|0:0,0:0:0:0:
284,128,59480,2,0,P|292:74|325:30,1,100,8|8,3:2|3:2,0:0:0:0:
372,108,60230,6,0,P|365:162|335:206,1,100,2|2,0:0|0:0,0:0:0:0:
420,244,60980,2,0,P|377:278|324:288,1,100,2|2,0:0|0:0,0:0:0:0:
356,376,61730,2,0,P|301:369|257:339,1,100,2|2,0:0|0:0,0:0:0:0:
204,280,62480,1,0,3:0:0:0:
172,196,62855,1,0,3:0:0:0:
