osu file format v10

[General]
AudioFilename: Audio.mp3
AudioLeadIn: 2000
PreviewTime: 535
Countdown: 0
SampleSet: Soft
StackLeniency: 0.7
Mode: 1
LetterboxInBreaks: 0

[Editor]
DistanceSpacing: 0.7
BeatDivisor: 6
GridSize: 8

[Metadata]
Title:Oh, Christmas Tree
TitleUnicode:Oh, Christmas Tree
Artist:Kevin MacLeod
ArtistUnicode:Kevin MacLeod
Creator:Philippines
Version:Taiko Oni
Source:
Tags:
BeatmapID:188857
BeatmapSetID:64083

[Difficulty]
HPDrainRate:5
CircleSize:5
OverallDifficulty:5
ApproachRate:5
SliderMultiplier:1.9
SliderTickRate:1

[Events]
//Background and Video events
0,0,"TaikoBG.jpg"
//Break Periods
//Storyboard Layer 0 (Background)
//Storyboard Layer 1 (Fail)
//Storyboard Layer 2 (Pass)
//Storyboard Layer 3 (Foreground)
//Storyboard Sound Samples
//Background Colour Transformations
3,100,163,162,255

[TimingPoints]
428,400,3,2,0,30,1,0
40004,400,3,2,0,15,1,0

[Colours]
Combo1 : 72,164,255
Combo2 : 0,128,255

[HitObjects]
296,192,28,1,2,0:0:0
296,192,428,1,2,0:0:0
216,192,694,1,0,0:0:0
216,192,761,1,0,0:0:0
296,192,827,1,2,0:0:0
216,192,1094,1,0,0:0:0
296,192,1228,1,2,0:0:0
216,192,1494,1,0,0:0:0
296,192,1628,1,2,0:0:0
216,192,1894,1,0,0:0:0
216,192,1961,1,0,0:0:0
296,192,2028,1,2,0:0:0
216,192,2294,1,0,0:0:0
296,192,2428,1,2,0:0:0
296,192,2694,1,2,0:0:0
216,192,2827,1,0,0:0:0
216,192,2961,1,0,0:0:0
216,192,3094,1,0,0:0:0
296,192,3227,1,2,0:0:0
296,192,3494,1,2,0:0:0
216,192,3627,1,0,0:0:0
216,192,3894,1,0,0:0:0
296,192,4027,1,2,0:0:0
216,192,4294,1,0,0:0:0
296,192,4427,1,2,0:0:0
216,192,4694,1,0,0:0:0
216,192,4761,1,0,0:0:0
296,192,4828,1,2,0:0:0
216,192,5094,1,0,0:0:0
296,192,5228,1,2,0:0:0
296,192,5494,1,2,0:0:0
296,192,5628,1,2,0:0:0
216,192,5894,1,0,0:0:0
216,192,5961,1,0,0:0:0
296,192,6028,1,2,0:0:0
216,192,6294,1,0,0:0:0
296,192,6428,1,2,0:0:0
296,192,6694,1,2,0:0:0
296,192,6828,1,2,0:0:0
216,192,7094,1,0,0:0:0
296,192,7228,1,2,0:0:0
216,192,7494,1,0,0:0:0
296,192,7561,1,0,0:0:0
296,192,7628,1,2,0:0:0
296,192,7761,1,2,0:0:0
296,192,7894,1,2,0:0:0
296,192,8028,1,2,0:0:0
296,192,8294,1,2,0:0:0
216,192,8428,1,0,0:0:0
216,192,8694,1,0,0:0:0
296,192,8828,1,2,0:0:0
216,192,9094,1,2,0:0:0
296,192,9161,1,0,0:0:0
296,192,9228,1,2,0:0:0
216,192,9494,1,0,0:0:0
296,192,9628,1,2,0:0:0
216,192,9894,1,0,0:0:0
296,192,10027,1,2,0:0:0
216,192,10161,1,0,0:0:0
296,192,10294,1,2,0:0:0
296,192,10427,1,2,0:0:0
216,192,10694,1,0,0:0:0
216,192,10761,1,0,0:0:0
296,192,10827,1,2,0:0:0
216,192,11094,1,0,0:0:0
296,192,11227,1,2,0:0:0
296,192,11494,1,2,0:0:0
216,192,11627,1,0,0:0:0
216,192,11894,1,0,0:0:0
216,192,11961,1,0,0:0:0
216,192,12027,1,2,0:0:0
296,192,12294,1,2,0:0:0
216,192,12427,1,0,0:0:0
216,192,12561,1,0,0:0:0
216,192,12694,1,0,0:0:0
296,192,12827,1,2,0:0:0
216,192,13094,1,0,0:0:0
296,192,13227,1,2,0:0:0
216,192,13494,1,0,0:0:0
216,192,13561,1,0,0:0:0
296,192,13627,1,2,0:0:0
216,192,13894,1,0,0:0:0
216,192,13961,1,0,0:0:0
296,192,14027,1,2,0:0:0
296,192,14294,1,2,0:0:0
216,192,14427,1,0,0:0:0
216,192,14694,1,0,0:0:0
296,192,14827,1,2,0:0:0
216,192,15094,1,0,0:0:0
216,192,15161,1,0,0:0:0
296,192,15227,1,2,0:0:0
216,192,15494,1,0,0:0:0
296,192,15627,1,2,0:0:0
216,192,15894,1,0,0:0:0
296,192,16027,1,2,0:0:0
216,192,16294,1,0,0:0:0
216,192,16361,1,0,0:0:0
296,192,16427,1,2,0:0:0
296,192,16694,1,2,0:0:0
296,192,16827,1,2,0:0:0
216,192,17094,1,0,0:0:0
296,192,17227,1,2,0:0:0
216,192,17361,1,0,0:0:0
296,192,17494,1,2,0:0:0
296,192,17627,1,2,0:0:0
216,192,17894,1,0,0:0:0
216,192,18027,1,0,0:0:0
216,192,18294,1,0,0:0:0
296,192,18427,1,2,0:0:0
216,192,18694,1,0,0:0:0
216,192,18761,1,0,0:0:0
296,192,18827,1,2,0:0:0
216,192,19094,1,0,0:0:0
296,192,19227,1,2,0:0:0
296,192,19494,1,2,0:0:0
216,192,19628,1,0,0:0:0
216,192,19894,1,0,0:0:0
296,192,20028,1,2,0:0:0
216,192,20294,1,0,0:0:0
296,192,20428,1,2,0:0:0
296,192,20828,1,2,0:0:0
216,192,21094,1,0,0:0:0
216,192,21161,1,0,0:0:0
296,192,21228,1,2,0:0:0
216,192,21494,1,0,0:0:0
296,192,21628,1,2,0:0:0
216,192,21894,1,0,0:0:0
296,192,22028,1,2,0:0:0
216,192,22294,1,0,0:0:0
216,192,22361,1,0,0:0:0
296,192,22428,1,2,0:0:0
216,192,22694,1,0,0:0:0
296,192,22828,1,2,0:0:0
296,192,23094,1,2,0:0:0
216,192,23228,1,0,0:0:0
216,192,23361,1,0,0:0:0
216,192,23494,1,0,0:0:0
296,192,23628,1,2,0:0:0
296,192,23894,1,2,0:0:0
216,192,24028,1,0,0:0:0
216,192,24294,1,0,0:0:0
296,192,24428,1,2,0:0:0
216,192,24694,1,0,0:0:0
296,192,24828,1,2,0:0:0
216,192,25094,1,0,0:0:0
216,192,25161,1,0,0:0:0
296,192,25228,1,2,0:0:0
216,192,25494,1,0,0:0:0
296,192,25628,1,2,0:0:0
296,192,25894,1,2,0:0:0
296,192,26028,1,2,0:0:0
216,192,26294,1,0,0:0:0
216,192,26361,1,0,0:0:0
296,192,26428,1,2,0:0:0
216,192,26694,1,0,0:0:0
296,192,26828,1,2,0:0:0
296,192,27094,1,2,0:0:0
296,192,27228,1,2,0:0:0
216,192,27494,1,0,0:0:0
296,192,27628,1,2,0:0:0
216,192,27894,1,0,0:0:0
296,192,27961,1,0,0:0:0
296,192,28028,1,2,0:0:0
296,192,28161,1,2,0:0:0
296,192,28294,1,2,0:0:0
296,192,28428,1,2,0:0:0
296,192,28694,1,2,0:0:0
216,192,28828,1,0,0:0:0
216,192,29094,1,0,0:0:0
296,192,29228,1,2,0:0:0
216,192,29494,1,2,0:0:0
296,192,29561,1,0,0:0:0
296,192,29628,1,2,0:0:0
216,192,29894,1,0,0:0:0
296,192,30028,1,2,0:0:0
216,192,30294,1,0,0:0:0
296,192,30428,1,2,0:0:0
216,192,30561,1,0,0:0:0
296,192,30694,1,2,0:0:0
296,192,30828,1,2,0:0:0
216,192,31094,1,0,0:0:0
216,192,31161,1,0,0:0:0
296,192,31228,1,2,0:0:0
216,192,31494,1,0,0:0:0
296,192,31628,1,2,0:0:0
296,192,31894,1,2,0:0:0
216,192,32028,1,0,0:0:0
216,192,32294,1,0,0:0:0
216,192,32361,1,0,0:0:0
216,192,32428,1,2,0:0:0
296,192,32694,1,2,0:0:0
216,192,32828,1,0,0:0:0
216,192,32961,1,0,0:0:0
216,192,33094,1,0,0:0:0
296,192,33228,1,2,0:0:0
216,192,33494,1,0,0:0:0
296,192,33628,1,2,0:0:0
216,192,33894,1,0,0:0:0
216,192,33961,1,0,0:0:0
296,192,34028,1,2,0:0:0
216,192,34294,1,0,0:0:0
216,192,34361,1,0,0:0:0
296,192,34428,1,2,0:0:0
296,192,34694,1,2,0:0:0
216,192,34828,1,0,0:0:0
216,192,35094,1,0,0:0:0
296,192,35228,1,2,0:0:0
216,192,35494,1,0,0:0:0
216,192,35561,1,0,0:0:0
296,192,35628,1,2,0:0:0
216,192,35894,1,0,0:0:0
296,192,36028,1,2,0:0:0
216,192,36294,1,0,0:0:0
296,192,36428,1,2,0:0:0
216,192,36694,1,0,0:0:0
216,192,36761,1,0,0:0:0
296,192,36828,1,2,0:0:0
296,192,37094,1,2,0:0:0
296,192,37228,1,2,0:0:0
216,192,37494,1,0,0:0:0
296,192,37628,1,2,0:0:0
216,192,37761,1,0,0:0:0
296,192,37894,1,2,0:0:0
296,192,38028,1,2,0:0:0
216,192,38294,1,0,0:0:0
216,192,38428,1,0,0:0:0
216,192,38694,1,0,0:0:0
296,192,38828,1,0,0:0:0
296,192,40004,1,4,0:0:0
