osu file format v10

[General]
AudioFilename: Audio.mp3
AudioLeadIn: 1500
PreviewTime: 535
Countdown: 0
SampleSet: Soft
StackLeniency: 0.7
Mode: 0
LetterboxInBreaks: 0

[Editor]
DistanceSpacing: 1
BeatDivisor: 6
GridSize: 8

[Metadata]
Title:Oh, Christmas Tree
TitleUnicode:Oh, Christmas Tree
Artist:Kevin MacLeod
ArtistUnicode:Kevin MacLeod
Creator:Philippines
Version:Hard
Source:
Tags:
BeatmapID:188853
BeatmapSetID:64083

[Difficulty]
HPDrainRate:5
CircleSize:4
OverallDifficulty:6
ApproachRate:7
SliderMultiplier:1.8
SliderTickRate:1

[Events]
//Background and Video events
0,0,"BG.jpg"
//Break Periods
//Storyboard Layer 0 (Background)
//Storyboard Layer 1 (Fail)
//Storyboard Layer 2 (Pass)
//Storyboard Layer 3 (Foreground)
//Storyboard Sound Samples
//Background Colour Transformations
3,100,163,162,255

[TimingPoints]
428,400,3,2,0,30,1,0
40004,400,3,2,0,15,1,0

[Colours]
Combo1 : 72,164,255
Combo2 : 0,128,255

[HitObjects]
70,257,428,2,0,B|92:289|148:293|180:268,1,120
205,245,827,2,0,B|212:291|313:321|368:273,1,180,2|0,0:0|0:0,0:0:0
470,136,1628,1,0,0:0:0
357,177,1894,1,0,0:0:0
321,181,2028,2,0,B|261:178|227:78|295:33,1,180,2|0,0:0|0:0,0:0:0
165,49,2694,1,0,0:0:0
144,79,2827,5,0,0:0:0
38,135,3094,1,0,0:0:0
59,165,3227,2,0,B|73:351,1,180,2|0,0:0|0:0,0:0:0
252,339,4027,2,0,B|192:351|136:268|184:203,1,180,0|2,0:0|0:0,0:0:0
192,32,4828,2,0,B|150:86|206:169|266:157,1,180,0|2,0:0|0:0,0:0:0
333,60,5494,5,0,0:0:0
358,85,5628,2,0,B|397:117|393:223|298:223,1,180,2|0,0:0|0:0,0:0:0
472,305,6428,1,0,0:0:0
353,322,6694,1,0,0:0:0
317,313,6828,2,0,B|295:277|193:274|167:345,1,180,2|0,0:0|0:0,0:0:0
51,311,7494,1,0,0:0:0
23,287,7628,6,0,B|40:160,1,120
76,168,8028,2,0,B|138:155|160:56|100:13,2,180,2|0|0,0:0|0:0|0:0,0:0:0
256,164,9228,1,2,0:0:0
350,90,9494,1,0,0:0:0
368,120,9628,2,0,B|379:155|427:177|471:157,1,120,0|0,0:0|0:0,0:0:0
493,131,10027,6,0,B|487:254,1,120
462,277,10427,1,2,0:0:0
282,268,10827,1,0,0:0:0
188,342,11094,1,0,0:0:0
170,312,11227,6,0,B|159:277|111:255|67:275,1,120
45,301,11627,2,0,B|51:178,1,120,2|0,0:0|0:0,0:0:0
76,155,12027,1,0,0:0:0
42,40,12294,1,0,0:0:0
70,62,12427,6,0,B|104:105|174:93|197:57,1,120
207,52,12827,2,0,B|261:86|263:184|206:214,1,180,2|0,0:0|0:0,0:0:0
112,272,13494,1,0,0:0:0
139,299,13627,2,0,B|185:285|227:296|262:324,1,120
288,304,14027,1,2,0:0:0
455,234,14427,1,0,0:0:0
456,54,14827,6,0,B|437:97|371:101|343:69,1,120
321,59,15227,2,0,B|275:85|267:184|325:220,1,180,2|0,0:0|0:0,0:0:0
197,348,16027,2,0,B|178:305|112:301|84:333,1,120
62,343,16427,2,0,B|16:317|8:218|66:182,1,180,2|0,0:0|0:0,0:0:0
87,69,17094,1,0,0:0:0
109,97,17227,5,0,0:0:0
224,129,17494,1,0,0:0:0
246,157,17627,1,2,0:0:0
350,303,18027,2,0,B|393:348|491:316|487:247,2,180,0|0|2,0:0|0:0|0:0,0:0:0
176,256,19227,2,0,B|133:211|35:243|39:312,2,180,0|0|2,0:0|0:0|0:0,0:0:0
336,174,20428,1,0,0:0:0
175,92,20828,6,0,B|143:123|83:107|71:63,1,120
47,45,21228,2,0,B|5:75|8:175|75:209,1,180,2|0,0:0|0:0,0:0:0
175,344,22028,2,0,B|207:313|267:329|279:373,1,120
312,362,22428,2,0,B|358:383|444:330|440:255,1,180,2|0,0:0|0:0,0:0:0
345,194,23094,6,0,B|425:178,1,60
390,62,23494,2,0,B|470:46,1,60,0|2,0:0|0:0,0:0:0
275,100,24028,2,0,B|236:163|133:148|115:87,2,180,0|0|2,0:0|0:0|0:0,0:0:0
250,278,25228,1,0,0:0:0
71,304,25628,5,0,0:0:0
25,193,25894,1,0,0:0:0
56,211,26028,2,0,B|123:217|169:127|109:61,1,180,2|0,0:0|0:0,0:0:0
301,53,26828,5,0,0:0:0
347,164,27094,1,0,0:0:0
316,146,27228,2,0,B|249:140|203:230|263:296,1,180,2|0,0:0|0:0,0:0:0
366,298,27894,1,0,0:0:0
401,303,28028,6,0,B|449:304|477:243|442:194,1,120
454,179,28428,2,0,B|407:131|435:38|512:40,2,180,2|0|0,0:0|0:0|0:0,0:0:0
286,111,29628,1,2,0:0:0
187,43,29894,2,0,B|96:38,1,60
41,123,30294,1,0,0:0:0
24,148,30428,6,0,B|40:186|94:201|143:185,1,120
155,165,30828,2,0,B|201:201|197:299|149:325,1,180,2|0,0:0|0:0,0:0:0
269,316,31494,1,0,0:0:0
252,291,31628,6,0,B|268:253|322:238|371:254,1,120
379,224,32028,2,0,B|373:175|424:107|504:135,1,180,2|0,0:0|0:0,0:0:0
465,247,32694,1,0,0:0:0
440,273,32828,6,0,B|421:307|359:315|327:283,1,120
301,271,33228,2,0,B|275:244|213:252|194:286,1,120,2|0,0:0|0:0,0:0:0
181,319,33628,1,0,0:0:0
68,278,33894,1,0,0:0:0
95,254,34028,6,0,B|104:131,1,120
134,114,34428,2,0,B|165:128|224:93|207:33,1,120,2|0,0:0|0:0,0:0:0
242,31,34828,1,0,0:0:0
348,87,35094,1,0,0:0:0
378,67,35228,6,0,B|427:64|467:122|449:162,1,120
450,180,35628,1,2,0:0:0
369,340,36028,1,0,0:0:0
260,291,36294,1,0,0:0:0
233,315,36428,6,0,B|109:325,1,120
85,301,36828,2,0,B|31:281|20:175|99:143,1,180,2|0,0:0|0:0,0:0:0
71,32,37494,1,0,0:0:0
100,52,37628,2,0,B|121:81|183:89|216:57,1,120
239,41,38028,2,0,B|293:61|304:167|225:199,1,180,2|0,0:0|0:0,0:0:0
365,284,38828,5,2,0:0:0
256,192,38961,12,6,40004,0:0:0
256,192,40203,12,0,44737,0:0:0
