osu file format v8

[General]
AudioFilename: 04 - Through The Arbour (Kevin Kern).mp3
AudioLeadIn: 2000
PreviewTime: 38160
Countdown: 0
SampleSet: Soft
StackLeniency: 0.7
Mode: 0
LetterboxInBreaks: 1

[Editor]
DistanceSpacing: 0.800000011920929
BeatDivisor: 3
GridSize: 8

[Metadata]
Title:Through the Arbor
Artist:Kevin Kern
Creator:brikel
Version:Easy
Source:
Tags:New ages ykcarrot Sunny Holic Moonfragrance bmin11 In the Enchanted Garden

[Difficulty]
HPDrainRate:2
CircleSize:3
OverallDifficulty:1
ApproachRate:2
SliderMultiplier:1.5
SliderTickRate:1

[Events]
//Background and Video events
0,0,"Kevin Kern - Through The Arbour.JPG"
//Break Periods
2,34418,36858
2,111218,113658
2,188018,192270
//Storyboard Layer 0 (Background)
//Storyboard Layer 1 (Fail)
//Storyboard Layer 2 (Pass)
//Storyboard Layer 3 (Foreground)
//Storyboard Sound Samples
//Background Colour Transformations
3,100,163,162,255

[TimingPoints]
618,600,4,2,1,40,1,0
192630,2400,4,2,1,70,1,0
193830,645.161290322581,4,2,1,70,1,0
195120,612.244897959184,4,2,1,30,1,0
195273,-200,4,2,1,30,0,0
196344,652.173913043478,4,2,1,40,1,0
196670,827.586206896552,4,2,1,50,1,0
197083,1818.18181818182,4,2,1,40,1,0
198673,645.161290322581,4,2,1,30,1,0

[Colours]
Combo1 : 236,57,62
Combo2 : 255,255,70
Combo3 : 91,91,255

[HitObjects]
400,136,618,2,0,B|312:72|168:72|96:144,1,300
116,128,2418,1,2
112,248,3018,2,0,B|200:312|344:312|416:232,1,300
393,252,4818,1,2
392,136,5418,5,0
272,136,6018,2,0,B|360:136,1,75
347,136,7218,1,2
256,56,7818,2,0,B|176:56|176:56|176:120|176:120|88:120,1,225
93,120,9618,1,2
320,256,11418,6,0,B|424:256,1,100
416,176,12218,2,0,B|416:72,1,100
240,64,13518,6,0,B|136:64,1,75
165,64,14418,1,2
88,152,15018,2,0,B|88:232|88:232|168:232|168:232|168:304,2,225,0|0|2
88,152,17418,1,2
208,152,18018,1,2
208,152,18318,1,4
368,80,19818,5,0
416,192,20418,2,0,B|416:272,1,75
416,267,21618,1,2
296,264,22218,6,0,B|200:264,1,75
221,264,22818,1,0
221,264,23118,1,0
216,88,24018,2,0,B|216:8,2,75,2|0|0
336,88,25218,6,0,B|440:88,1,75
411,88,26418,1,2
416,208,27018,2,0,B|416:280|416:280|320:280|320:280|320:200,1,225
320,221,28818,1,2
320,221,29418,1,4
128,72,30618,6,0,B|56:168,1,100
64,232,31418,2,0,B|128:320,1,100
368,296,32718,5,2
368,176,33318,2,0,B|368:264,1,75
256,192,34218,1,4
304,112,38418,6,0,B|256:56|256:56|192:128,1,150
204,113,39918,1,2
208,296,40818,2,0,B|296:296,1,75
283,296,41418,1,2
208,272,43218,6,0,B|256:328|256:328|320:256,1,150
312,88,44718,1,2
312,88,45218,2,0,B|160:88,1,150
162,88,46218,1,2
416,288,48018,6,0,B|320:288,1,75
341,288,48618,1,2
160,288,49518,2,0,B|160:184|160:184|80:184|80:184|80:96,1,262.5
80,103,51018,1,2
256,104,51918,5,2
256,104,52518,2,0,B|352:104,1,75
392,104,53118,2,0,B|392:200,1,75
392,179,54318,1,2
256,296,55218,2,0,B|256:216,2,75,0|0|2
384,272,57618,6,0,B|288:320|288:320|208:320,1,150
244,320,59118,1,2
120,192,60018,2,0,B|16:192,2,75,0|0|2
456,56,62418,5,0
400,56,62718,1,0
344,56,63018,1,2
104,80,64218,2,0,B|32:160,1,100
40,232,65018,2,0,B|112:320,1,100
464,48,67218,5,0
416,80,67518,1,0
368,112,67818,1,2
216,216,68718,2,0,B|72:312,2,150
216,216,70218,1,2
352,104,71118,6,0,B|352:192|352:192|256:192,2,150
296,104,72618,2,0,B|192:104|192:104|192:176|192:176|112:176,2,225,0|0|0
296,104,75018,1,2
256,192,77418,5,0
256,72,78018,2,0,B|336:72,1,75
448,72,78918,2,0,B|448:160,1,75,0|2
448,264,79818,5,0
328,264,80418,2,0,B|432:264,1,75
280,264,81318,2,0,B|192:264,1,75,0|2
88,264,82218,5,0
88,144,82818,2,0,B|144:80|144:80|280:80|280:80|336:152,1,300,0|2
408,240,84618,1,2
408,240,85518,1,2
168,240,86718,6,0,B|168:296,2,37.5,0|0|2
344,80,88218,2,0,B|424:160,1,100
416,232,89018,2,0,B|344:304,1,100
128,192,90318,1,2
248,192,90918,2,0,B|168:192,1,75
56,152,91818,6,0,B|128:72|256:40|384:80|464:160,1,450,0|2
464,280,94218,2,0,B|384:408|72:104|32:272,1,450,0|2
64,120,96618,5,0
160,48,97218,2,0,B|248:48,1,75
352,48,98118,2,0,B|256:48,1,75,0|2
400,48,99018,5,0
360,160,99618,2,0,B|328:240|328:240|184:240|184:240|152:312,1,300,0|2
72,216,101418,5,0
72,216,102018,2,0,B|112:128,1,75,0|2
152,40,102918,2,0,B|56:40,2,75,0|0|2
152,40,103818,1,2
272,40,104418,2,0,B|360:40,1,75,0|2
280,272,105918,6,0,B|280:328,2,37.5,0|0|2
144,72,107418,2,0,B|224:144,1,100
296,136,108218,2,0,B|376:64,1,100
400,248,109518,2,0,B|344:320|344:320|192:320,1,225,0|2
209,320,111018,1,4
80,72,115218,5,0
128,104,115518,1,0
176,144,115818,2,0,B|256:192|256:192|328:192,1,150,0|0
313,192,116718,1,2
496,192,117618,2,0,B|400:192,1,75
421,192,118218,1,2
64,192,120018,6,0,B|112:256|112:256|192:256,1,150,0|0
184,80,121518,1,2
232,192,122118,2,0,B|288:192|288:192|344:240,1,112.5
331,229,123018,1,2
440,96,124818,6,0,B|344:96|344:96|304:152,1,150
216,288,126318,1,2
120,136,127218,1,0
120,80,127518,2,0,B|200:80,1,75,0|2
195,80,128718,1,2
312,80,129318,6,0,B|368:96|368:96|424:152,1,112.5
408,134,130218,1,2
240,80,131118,2,0,B|152:80,1,75
48,80,132018,2,0,B|144:80,1,75
123,80,132618,1,2
256,152,134418,5,0
280,208,134718,1,0
232,208,135018,1,0
256,32,135918,1,2
256,208,136818,2,0,B|256:120,1,75
256,133,137418,1,2
56,80,139218,6,0,B|88:80|88:80|136:40|136:40|136:120,1,150
400,64,141018,2,0,B|352:112|352:112|352:160|352:160|416:160|416:160|416:232|416:232|352:280,1,300,0|2
96,304,144018,5,0
144,272,144318,1,0
192,240,144618,1,2
192,64,145518,2,0,B|240:64|240:64|264:120|264:120|328:120,1,150
306,120,146568,1,0
306,120,147018,1,2
368,288,147918,5,0
248,288,148518,2,0,B|184:288|184:288|184:208|184:208|96:280,1,225,0|2
120,144,150018,2,0,B|120:56,1,75
296,72,151218,2,0,B|216:72,1,75
221,72,151818,1,2
88,80,154218,6,0,B|168:80|168:80|200:160|200:160|288:160,1,225
440,160,156018,1,2
336,160,156618,6,0,B|256:160|256:160|208:240|208:240|144:240,1,225
32,240,158418,1,2
152,240,159018,6,0,B|208:240|208:240|256:160|256:160|344:160,1,225
440,160,160818,1,2
328,192,161418,6,0,B|256:192|256:192|256:136|256:136|168:200,1,225
368,48,163518,2,0,B|440:48,2,37.5,0|0|2
456,272,165018,6,0,B|408:368|272:136|168:200,1,300,0|2
195,187,167118,1,2
195,187,168018,1,2
256,192,168618,12,0,170418
432,192,171018,6,0,B|368:352|112:0|32:208,1,450
40,312,173418,5,0
160,312,174018,2,0,B|240:312,1,75
352,312,174918,2,0,B|264:312,1,75,0|2
280,192,175818,5,0
280,72,176418,2,0,B|208:72|208:72|208:160|208:160|80:72,1,300,0|2
88,200,178218,5,0
208,200,178818,2,0,B|256:248|256:248|256:144|256:144|320:144,1,225,0|2
310,144,180618,1,2
310,144,181518,1,2
72,192,182718,6,0,B|32:192,2,37.5,0|0|2
288,288,184218,2,0,B|384:344|384:344|384:200|384:200|440:152,1,300,0|2
256,248,186318,1,2
256,128,186918,2,0,B|256:216,1,75
256,203,187818,1,4
192,88,193830,6,0,B|80:184,1,100
112,232,194690,2,0,B|208:320,1,100
328,192,196038,2,0,B|192:192,1,131.25
256,192,198446,12,2,201898
