osu file format v8

[General]
AudioFilename: Thinking Under the Snow.mp3
AudioLeadIn: 0
PreviewTime: 114566
Countdown: 0
SampleSet: Normal
StackLeniency: 0.7
Mode: 0
LetterboxInBreaks: 1

[Editor]
DistanceSpacing: 0.8
BeatDivisor: 4
GridSize: 8

[Metadata]
Title:Syut Ha Si -Thinking Under the Snow-
Artist:Kevin Cheng
Creator:aesopl19193
Version:Hard
Source:A Fistful of Stances
Tags:Hong Kong TVB Cantonese

[Difficulty]
HPDrainRate:6
CircleSize:4
OverallDifficulty:7
ApproachRate:7
SliderMultiplier:1.4
SliderTickRate:1

[Events]
//Background and Video events
0,0,"000001174796_1268369330.jpg"
Video,0,"_-_1080P_.flv"
//Break Periods
2,94080,102580
2,145280,152580
2,159480,163380
//Storyboard Layer 0 (Background)
//Storyboard Layer 1 (Fail)
//Storyboard Layer 2 (Pass)
//Storyboard Layer 3 (Foreground)
//Storyboard Sound Samples
//Background Colour Transformations
3,100,0,0,0

[TimingPoints]
1080,400.000399600399,4,1,1,69,1,0
26454,-100,4,2,1,90,0,0
37680,-100,4,1,1,31,0,0
38180,-100,4,1,1,41,0,0
38580,-100,4,1,1,49,0,0
38980,-100,4,1,1,60,0,0
39380,-100,4,1,1,70,0,0
39380,-100,4,1,1,70,0,0
49280,-100,4,1,1,59,0,0
50080,-100,4,1,1,51,0,0
50980,-100,4,1,1,41,0,0
51380,-100,4,1,1,49,0,0
51780,-100,4,1,1,61,0,0
52180,-100,4,1,1,69,0,0
135380,-100,4,1,1,51,0,0
136480,-100,4,1,1,61,0,0
137680,-100,4,1,1,69,0,0
138080,-100,4,2,1,90,0,0
140180,-200,4,1,1,70,0,0
141680,-200,4,1,1,69,0,0
142540,-100,4,1,1,70,0,0
144880,-100,4,1,1,0,0,0
145280,-100,4,1,1,70,0,0
154480,-100,4,2,1,89,0,0
164040,-100,4,1,1,72,0,0
167480,-100,4,1,1,78,0,1
180680,-100,4,1,1,78,0,0
181880,-100,4,1,1,0,0,0

[Colours]
Combo1 : 132,79,0
Combo2 : 143,97,148
Combo3 : 99,99,252
Combo4 : 252,107,107

[HitObjects]
144,192,10680,1,0
368,192,11480,1,8
144,192,12280,5,0
144,304,12680,1,0
200,304,12880,1,0
256,304,13080,1,12
352,104,13880,5,0
312,64,14080,1,0
256,48,14280,1,0
200,64,14480,1,0
160,104,14680,1,0
160,216,15080,6,0,B|88:216|88:216,2,70
216,216,15680,1,0
272,216,15880,1,0
384,216,16280,5,8
368,272,16480,1,0
328,312,16680,1,0
280,344,16880,1,0
224,352,17080,1,0
144,272,17480,6,0,B|88:320|88:320,2,70,0|0|8
232,200,18280,2,0,B|296:144|296:144,4,70
144,128,19480,1,8
192,96,19680,1,0
248,80,19880,1,0
304,96,20080,1,0
352,128,20280,6,0,B|408:80|408:80,1,70
368,192,20680,2,0,B|312:240|312:240,1,70
272,272,21080,1,8
152,280,21480,6,0,B|96:328|96:328,1,70
128,216,21880,2,0,B|184:168|184:168,1,70
224,136,22280,1,8
456,192,22680,5,0
416,152,22880,1,0
360,152,23080,1,0
328,200,23280,1,0
360,248,23480,2,0,B|360:320|360:320,1,70
304,296,23880,2,0,B|248:352|248:352,1,70
200,344,24280,1,8
128,256,24680,5,0
88,216,24880,1,0
104,160,25080,1,0
160,152,25280,1,0
200,192,25480,1,0
184,248,25680,1,0
128,256,25880,2,0,B|272:232|272:232,1,140,8|0
408,120,26680,6,0,B|456:192|408:256|408:256,1,140
464,248,27280,2,0,B|320:248|320:248,1,140
256,336,28080,1,0
256,224,28480,1,0
256,112,28880,1,0
144,112,29280,2,0,B|144:40|144:40,2,70
144,168,29880,6,0,B|96:232|144:304|144:304,1,140
88,296,30480,2,0,B|232:296|232:296,1,140
224,184,31280,2,0,B|320:184|296:120|424:120|424:120,1,210
480,120,32080,1,0
344,312,33080,6,0,B|200:312|200:312,1,140
240,272,33680,2,0,B|96:272|96:272,1,140
64,88,34680,6,0,B|128:40|200:88|200:88,1,140
176,136,35280,2,0,B|240:192|304:136|304:136,1,140
464,88,36280,1,0
368,144,36680,1,0
464,200,37080,1,0
368,256,37480,1,0
272,192,37880,5,0
256,168,38080,1,0
232,160,38280,1,0
208,160,38480,1,0
184,176,38680,1,0
168,200,38880,1,0
168,224,39080,1,0
184,248,39280,1,0
200,272,39480,6,0,B|56:272|56:272,1,140
32,224,40080,2,0,B|-16:160|32:88|32:88,1,140
152,88,40880,2,0,B|160:48|120:16|120:16,2,70
208,88,41480,1,0
208,88,41680,2,0,B|352:88|352:88,1,140
408,88,42280,1,0
448,128,42480,1,0
408,168,42680,6,0,B|328:192|336:280|336:280,1,140
280,272,43280,2,0,B|288:192|200:168|200:168,1,140
144,168,43880,1,0
144,168,44080,2,0,B|288:168|288:168,1,140
344,168,44680,2,0,B|376:216|392:240|392:240,2,70
344,168,45280,1,0
344,168,45480,1,0
216,112,45880,6,0,B|120:112|120:200|120:200,1,140
120,248,46480,2,0,B|48:248|48:248,2,70
288,248,47480,2,0,B|344:192|288:120|288:120,1,140
328,80,48080,2,0,B|400:80|400:80,2,70
272,80,48680,2,0,B|208:48|160:112|128:80|128:80,1,140
56,160,49480,5,0
24,208,49680,1,0
56,256,49880,1,8
160,304,50280,1,0
192,256,50480,1,0
248,256,50680,1,0
336,328,51080,5,0
392,320,51280,1,0
440,288,51480,1,8
456,232,51680,1,0
432,184,51880,1,0
384,152,52080,1,0
328,144,52280,6,0,B|328:72|328:72,2,70,4|0|0
272,144,52880,1,0
272,144,53080,2,0,B|128:144|128:144,1,140,8|0
32,96,53880,1,8
32,96,54080,1,0
8,144,54280,1,0
8,144,54480,1,0
32,192,54680,2,0,B|32:264|32:264|24:264,2,70,8|0|0
208,336,55480,6,0,B|136:336|128:336|128:336,2,70
264,336,56080,1,0
264,336,56280,2,0,B|408:336|408:336,1,140,8|0
424,224,57080,2,0,B|496:224|496:224,2,70,8|0|0
368,224,57680,1,0
312,224,57880,2,0,B|240:224|240:224,2,70,8|0|0
312,112,58680,6,0,B|248:152|168:112|168:112,1,140,0|0
128,96,59280,2,0,B|88:72|56:96|56:96,2,70,0|8|0
128,152,59880,1,0
128,152,60080,2,0,B|56:216|128:272|128:272,1,140
184,272,60680,1,0
240,272,60880,2,0,B|240:344|240:344,2,70,0|8|0
296,272,61480,2,0,B|352:272|440:272|440:272,1,140
256,192,62280,12,4,63480
144,72,63880,5,0
368,72,64280,1,8
368,296,64680,1,0
144,296,65080,1,4
144,184,65480,5,0
88,184,65680,1,0
32,184,65880,2,0,B|32:224|32:328|32:328,2,140,8|0|0
32,72,67080,2,0,B|32:0|32:0,2,70,0|0|8
144,72,67880,5,0
240,136,68280,1,0
328,64,68680,1,0
384,64,68880,2,0,B|440:8|440:8,2,70,0|8|0
384,120,69480,1,0
384,176,69680,1,0
384,232,69880,1,0
256,344,70280,5,4
96,192,70680,1,8
256,40,71080,1,0
416,192,71480,1,0
416,304,71880,6,0,B|488:304|488:304,2,70,0|0|8
360,304,72480,1,0
360,304,72680,2,0,B|216:304|216:304,1,140
104,304,73480,1,0
104,248,73680,1,0
104,192,73880,1,8
256,40,74280,5,0
352,96,74680,1,0
352,96,74880,1,0
352,152,75080,1,0
408,152,75280,1,0
408,208,75480,2,0,B|264:208|264:208,1,140,8|0
208,208,76080,1,0
208,208,76280,1,0
408,312,76680,5,0
408,312,76880,1,0
352,312,77080,1,8
352,312,77280,1,0
296,312,77480,2,0,B|152:312|152:312,1,140,0|4
128,200,78280,1,0
184,200,78480,1,0
240,200,78680,1,8
296,200,78880,1,0
352,200,79080,1,0
432,120,79480,5,0
432,120,79680,1,0
416,64,79880,1,0
416,64,80080,1,0
368,32,80280,2,0,B|224:32|224:32,1,140,8|0
120,32,81080,6,0,B|40:32|40:32,2,70
120,88,81680,2,0,B|192:88|192:88,2,70,0|8|0
120,144,82280,1,0
120,144,82480,2,0,B|120:288|120:288,1,140
120,336,83080,1,0
120,336,83280,2,0,B|192:336|208:336|264:336|264:336,1,140
256,192,84080,12,4,86680
104,112,87080,5,0
160,112,87280,1,0
216,112,87480,2,0,B|368:112|368:112,2,140,0|0|8
216,224,88680,1,0
216,224,88880,1,0
216,224,89080,6,0,B|72:224|72:224|72:216,2,140,0|0|8
272,224,90080,1,0
272,224,90280,2,0,B|352:224|352:272|408:272|408:272,1,140,0|8
256,192,91080,12,0,93880
80,152,103480,5,0
80,152,103680,1,0
120,112,103880,1,0
120,112,104080,1,0
160,152,104280,2,0,B|224:152|304:152|304:152,2,140,8|0|0
160,208,105280,2,0,B|88:208|88:208|96:208,2,70
160,264,105880,2,0,B|224:264|240:320|296:320|296:320,1,140,8|0
472,192,106680,5,0
472,192,106880,1,0
424,216,107080,1,0
424,216,107280,1,0
376,192,107480,2,0,B|376:48|376:48,1,140,8|0
264,48,108280,1,0
208,48,108480,1,0
152,48,108680,2,0,B|8:48|8:48|16:48,2,140,0|8|0
32,240,109880,6,0,B|88:200|168:240|168:240,1,140,4|0
216,256,110480,2,0,B|272:200|272:200|264:208,2,70,0|8|0
176,296,111080,1,0
176,296,111280,2,0,B|320:296|320:296,1,140
368,296,111880,1,0
368,296,112080,2,0,B|440:296|440:296,2,70,0|8|0
368,240,112680,2,0,B|368:168|368:168|368:176,2,70
256,264,113480,5,0
200,264,113680,1,0
144,264,113880,1,8
256,128,114280,1,0
312,128,114480,1,0
368,128,114680,1,4
152,80,115080,5,0
360,152,115480,1,8
152,240,115880,1,0
360,328,116280,1,4
248,328,116680,6,0,B|104:328|104:328,2,140,0|8|0
248,272,117680,1,0
248,216,117880,2,0,B|328:216|328:216,2,70
192,216,118480,1,0
192,216,118680,1,8
112,136,119080,5,0
392,136,119480,1,0
112,136,119880,1,0
112,136,120080,1,0
112,136,120280,1,8
224,136,120680,2,0,B|224:64|224:64,2,70
280,136,121280,1,0
336,136,121480,2,0,B|400:112|408:24|408:24|416:24,2,140,0|8|0
288,168,122480,1,0
248,208,122680,6,0,B|176:232|160:320|160:320,2,140,0|0|8
296,232,123680,1,0
296,232,123880,1,0
344,208,124080,1,0
344,208,124280,1,0
352,320,124680,2,0,B|496:320|496:320,2,140,4|8|0
296,320,125680,5,0
296,320,125880,2,0,B|152:320|152:320,1,140
104,320,126480,2,0,B|32:320|32:320,2,70,0|8|0
120,264,127080,1,0
96,216,127280,1,0
120,168,127480,1,0
256,64,127880,5,0
392,240,128280,1,8
256,64,128680,1,0
120,240,129080,1,4
176,224,129280,1,0
208,272,129480,1,0
184,320,129680,1,0
128,320,129880,2,0,B|272:320|272:320,1,140,8|0
376,320,130680,1,0
400,272,130880,1,0
456,272,131080,2,0,B|456:128|456:128,1,140,0|8
344,120,131880,5,0
120,120,132280,2,0,B|48:120|48:120,2,70
120,176,132880,1,0
120,176,133080,2,0,B|88:256|8:256|8:256,1,140,8|0
32,200,133680,2,0,B|104:232|104:312|104:312,1,140
144,344,134280,1,0
144,344,134480,2,0,B|288:344|288:344,2,140
136,288,135480,5,0
120,232,135680,1,0
136,176,135880,1,0
160,128,136080,1,0
208,104,136280,1,8
248,208,136680,5,0
304,200,136880,1,0
352,168,137080,1,0
392,128,137280,1,0
408,72,137480,2,0,B|512:168|512:168,1,140,0|4
480,272,138280,6,0,B|480:344|480:344,2,70
368,272,139080,1,0
320,296,139280,1,0
272,272,139480,1,8
224,296,139680,1,0
176,272,139880,1,0
96,192,140280,6,0,B|144:152|200:208|232:168|232:168,1,140
296,160,141480,2,0,B|344:216|344:216,1,70,0|4
384,264,142280,1,0
256,192,142680,12,0,145080
408,192,153480,5,0
296,168,153880,1,0
184,192,154280,1,0
72,168,154680,1,6
368,328,155880,1,0
256,328,156280,1,0
136,136,157480,6,0,B|32:40|32:40,2,140,0|2|0
136,192,158480,1,0
328,192,159080,1,0
328,192,159280,1,0
72,192,164280,5,0
184,64,164880,1,0
296,192,165480,1,0
408,192,165880,1,0
256,192,166280,12,0,167080
456,80,167480,6,0,B|392:144|440:208|440:208,1,140,4|0
400,248,168080,1,0
400,248,168280,1,8
432,296,168480,1,0
432,296,168680,2,0,B|368:336|296:296|296:296,1,140,0|8
208,232,169480,2,0,B|136:232|136:232,2,70,0|0|8
392,192,170280,5,0
112,192,170680,1,0
392,192,171080,1,0
392,192,171280,2,0,B|248:192|248:192,1,140
256,256,171880,1,0
256,256,172080,2,0,B|400:256|400:256,1,140
392,192,172680,1,0
392,192,172880,2,0,B|248:192|248:192,1,140
256,192,173680,12,4,176280
408,72,176680,5,0
344,72,176880,1,0
280,72,177080,2,0,B|136:72|136:72,2,140,0|0|8
144,248,178280,1,0
192,288,178480,1,0
176,352,178680,6,0,B|320:352|320:352,2,140
112,352,179680,1,0
48,352,179880,2,0,B|48:208|48:208,2,140,0|4|4
256,192,180780,12,0,183480
