osu file format v7

[General]
AudioFilename: butter.mp3
AudioLeadIn: 1993
PreviewTime: 7384
Countdown: 1
SampleSet: Soft
StackLeniency: 1
Mode: 0
LetterboxInBreaks: 1

[Editor]
Bookmarks: 0,7384,14769,22153,29537,36920,42343,44305,57228,73846
DistanceSpacing: 0.899999976158142
BeatDivisor: 4
GridSize: 8

[Metadata]
Title:Butter
Artist:Ketchup
Creator:whymeman
Version:Melting Nightmare
Source:
Tags:eee awp lepidopodus

[Difficulty]
HPDrainRate:5
CircleSize:5
OverallDifficulty:8
SliderMultiplier:1.1
SliderTickRate:2

[Events]
//Background and Video events
0,0,"[Background].jpg"
//Break Periods
2,42546,43557
//Storyboard Layer 0 (Background)
//Storyboard Layer 1 (Fail)
//Storyboard Layer 2 (Pass)
//Storyboard Layer 3 (Foreground)
//Storyboard Sound Samples
//Background Colour Transformations
3,100,255,255,128

[TimingPoints]
0,230.769230769231,4,2,1,100,1,0
22153,-200,4,2,1,100,0,0
29537,-100,4,2,1,100,0,0

[Colours]
Combo1 : 192,192,192
Combo2 : 221,181,174
Combo3 : 253,213,119
Combo4 : 89,184,230
Combo5 : 36,189,158

[HitObjects]
120,144,0,1,2
120,144,115,1,0
168,144,230,1,0
168,144,346,1,0
208,144,461,1,0
208,144,576,1,0
256,144,692,1,2
392,144,923,1,0
392,144,1038,1,0
344,144,1153,1,0
344,144,1269,1,0
304,144,1384,1,2
304,144,1499,1,0
256,144,1615,1,0
256,240,1846,5,2
256,240,1961,1,0
256,288,2076,1,0
256,288,2192,1,0
256,336,2307,1,0
256,336,2423,1,0
256,336,2538,2,2,B|304:352|360:336|376:328|376:328,1,110
408,304,2884,1,0
440,264,2999,2,2,B|464:232|488:168|480:144|480:144,1,110,2|2
480,56,3461,1,2
384,56,3692,5,2
288,56,3923,1,2
288,104,4038,1,0
288,152,4153,1,2
192,56,4384,1,0
192,104,4499,1,0
192,152,4615,1,2
104,56,4846,1,0
16,56,5076,1,2
16,104,5192,1,0
16,152,5307,1,0
16,248,5538,5,2
64,256,5653,1,0
112,264,5769,1,2
160,272,5884,1,0
208,280,5999,1,2
304,280,6230,1,2
400,280,6461,1,2
304,184,6692,1,0
400,184,6923,1,2
400,136,7038,1,0
400,88,7153,1,0
304,88,7384,5,6
256,80,7499,1,0
208,72,7615,1,0
160,64,7730,1,2
112,56,7846,1,0
112,152,8076,1,2
160,160,8192,1,0
208,168,8307,1,0
112,248,8538,1,2
160,256,8653,1,0
208,264,8769,1,0
112,360,9000,1,0
208,360,9230,5,6
256,352,9346,1,0
304,344,9461,1,0
352,336,9576,1,2
400,328,9692,1,0
400,232,9923,1,2
448,224,10038,1,0
496,216,10153,1,0
400,136,10384,1,2
352,144,10500,1,0
304,152,10615,1,0
256,160,10730,1,0
208,168,10846,1,2
208,264,11076,5,6
160,256,11192,1,0
112,248,11307,1,0
112,152,11538,1,2
56,64,11769,1,2
104,56,11884,1,0
152,48,12000,1,0
112,152,12230,1,2
208,136,12461,1,2
256,128,12576,1,0
304,120,12692,1,2
352,112,12807,1,0
400,104,12923,5,6
400,200,13153,1,0
448,208,13269,1,0
496,216,13384,1,2
400,304,13615,1,0
400,200,13846,5,6
352,208,13961,1,0
304,216,14076,1,0
256,224,14192,1,0
208,232,14307,1,2
112,248,14538,1,0
112,152,14769,5,6
112,104,14884,1,0
112,56,15000,1,2
160,56,15115,1,0
208,56,15230,1,8
304,56,15461,1,2
304,104,15576,1,0
304,152,15692,1,2
256,152,15807,1,0
208,152,15923,1,8
112,248,16153,1,2
160,248,16269,1,0
208,248,16384,1,10
304,248,16615,5,6
400,248,16846,1,2
408,200,16961,1,0
416,152,17076,1,10
320,152,17307,1,2
328,104,17423,1,0
336,56,17538,1,2
320,152,17769,1,8
304,248,18000,1,2
296,296,18115,1,0
288,344,18230,1,10
296,296,18346,1,0
304,248,18461,5,6
320,152,18692,2,0,B|280:152|256:176|208:184|200:160|200:160,2,110,0|10|0
320,152,19269,1,0
320,152,19384,2,0,B|360:152|384:128|432:120|448:136|448:136,2,110,2|8|2
312,104,19961,1,0
304,56,20076,1,8
208,56,20307,5,6
200,104,20423,1,0
192,152,20538,1,2
184,200,20653,1,0
176,248,20769,1,10
160,344,21000,1,2
64,344,21230,5,6
56,296,21346,1,0
48,248,21461,1,8
32,152,21692,1,2
24,104,21807,1,0
16,56,21923,1,8
112,56,22153,6,4,B|160:48|200:56|224:104|208:128|192:152|192:152|192:152|192:152,1,165,4|2
176,168,22961,1,0
160,184,23076,2,0,B|128:218|128:256|136:288|144:304|144:304,1,110,0|2
144,312,23653,1,0
160,328,23769,1,0
184,336,23884,1,0
208,336,24000,6,4,B|248:336|296:320|320:296,1,110,4|0
352,272,24692,1,2
368,256,24807,1,0
384,240,24923,2,0,B|392:224|408:216|448:216|472:208|488:184|472:168|472:168|472:168,1,110,0|2
476,186,25500,1,0
472,136,25730,1,0
472,136,25846,6,0,B|456:96|424:56|384:48|352:48|320:48|320:48,1,165,4|2
296,48,26769,1,0
248,48,27000,1,0
296,48,27230,1,2
248,48,27461,1,0
200,48,27692,6,0,B|144:48|96:72|80:88|80:88,1,110
40,128,28500,1,0
40,128,28615,1,0
40,176,28846,1,2
40,224,29076,1,0
80,200,29307,1,0
120,176,29538,6,4,B|120:232|120:232,2,55,4|0|0
120,176,29884,2,4,B|120:120|120:120,2,55,0|0|0
168,176,30230,2,4,B|168:240|168:240,2,55,2|0|0
168,176,30576,2,4,B|168:112|168:112,2,55,0|0|0
216,176,30923,1,2
216,176,31038,1,0
264,176,31153,1,0
264,176,31269,1,0
312,176,31384,5,4
312,176,31500,1,0
360,176,31615,1,0
360,176,31730,1,0
408,176,31846,2,0,B|408:232|408:232,2,55,0|0|2
408,175,32192,2,0,B|408:112|408:112,2,55,0|0|0
456,175,32538,2,0,B|456:232|456:232,2,55,0|0|2
456,175,32884,2,0,B|456:112|456:112,2,55,0|0|0
504,176,33230,6,4,B|504:232|496:264|472:288|448:304|408:312|352:312|344:312|344:312|344:312,1,220,4|0
320,312,33807,1,0
272,312,33923,1,2
224,312,34038,1,0
176,312,34153,2,0,B|112:312|72:304|56:248|64:192|64:144|64:144|64:144,1,220,0|2
72,112,34730,1,0
88,64,34846,1,0
128,32,34961,1,0
176,32,35076,6,0,B|200:40|344:48|192:152|344:192|344:192,1,220,2|0
368,192,35653,1,0
416,208,35769,1,2
424,256,35884,1,0
392,296,36000,1,0
296,296,36230,1,0
192,296,36461,1,2
144,296,36576,1,0
96,296,36692,1,0
256,192,36923,12,2,38653
160,144,39115,5,2
160,192,39230,1,0
160,240,39346,1,0
256,144,39576,5,2
256,192,39692,1,0
256,240,39807,1,0
352,144,40038,5,2
352,192,40153,1,0
352,240,40269,1,0
256,192,40499,12,0,41884
256,192,42346,5,2
48,48,44307,5,4
40,96,44423,1,0
32,144,44538,1,2
24,192,44653,1,0
16,240,44769,1,8
128,144,44999,1,0
120,192,45115,1,0
112,240,45230,1,2
104,288,45346,1,0
96,336,45461,1,8
208,240,45692,1,2
200,288,45807,1,0
192,336,45923,1,10
304,240,46153,5,4
320,336,46384,1,0
312,288,46499,1,0
304,240,46615,1,10
416,336,46846,1,0
408,288,46961,1,0
400,240,47076,1,2
392,192,47192,1,0
384,144,47307,1,8
288,144,47538,1,2
304,240,47769,1,10
288,144,47999,5,4
288,144,48115,1,0
288,144,48230,2,0,B|328:144|320:184|352:216|392:208|392:208,2,110,2|8|2
320,112,48807,1,0
352,80,48923,2,0,B|392:80|384:40|416:8|456:16|456:16,2,110,2|8|2
256,80,49615,1,8
160,80,49846,5,4
160,80,49961,1,0
160,80,50076,2,0,B|120:80|128:40|96:8|56:16|56:16,2,110,2|8|2
192,112,50653,1,0
224,144,50769,2,0,B|184:144|192:184|160:216|120:208|120:208,2,110,6|8|6
128,144,51461,1,0
208,240,51692,5,4
160,240,51807,1,0
112,240,51923,1,2
112,288,52038,1,0
112,336,52153,1,8
304,240,52384,1,0
352,240,52499,1,0
400,240,52615,1,2
400,288,52730,1,0
400,336,52846,1,8
304,336,53076,1,2
256,336,53192,1,0
208,336,53307,1,10
256,240,53538,5,4
208,144,53769,1,0
208,96,53884,1,0
208,48,53999,1,10
304,48,54230,1,0
304,96,54346,1,0
304,144,54461,1,2
256,48,54692,1,8
256,144,54923,1,2
256,192,55038,1,0
256,240,55153,1,10
256,288,55269,1,0
256,336,55384,5,4
304,336,55499,1,0
352,336,55615,2,0,B|392:304|400:272|400:232|400:232,1,110,2|10
400,192,55961,1,0
400,144,56076,2,0,B|384:104|328:88|296:88|296:88,1,110,0|2
256,88,56423,1,0
208,88,56538,2,0,B|152:96|128:120|120:152|120:152,1,110,8|2
120,192,56884,1,0
120,240,56999,1,8
256,192,57230,12,4,58615
352,32,59076,5,4
304,40,59192,1,0
256,48,59307,1,2
208,56,59423,1,0
160,64,59538,1,8
352,128,59769,1,0
304,136,59884,1,0
256,144,59999,1,2
208,152,60115,1,0
160,160,60230,1,8
352,216,60461,1,2
352,216,60576,1,0
352,216,60692,1,10
160,344,60923,5,4
208,336,61038,1,0
256,328,61153,1,2
304,320,61269,1,0
352,312,61384,1,10
160,248,61615,1,0
208,240,61730,1,0
256,232,61846,1,2
304,224,61961,1,0
352,216,62076,1,8
160,160,62307,1,2
160,160,62423,1,0
160,160,62538,1,10
256,160,62769,5,4
256,160,62884,1,0
256,160,62999,2,0,B|248:120|216:120|192:96|192:56|192:56,1,110,2|8
248,72,63346,1,0
296,72,63461,1,2
344,72,63576,1,0
392,72,63692,2,0,B|392:112|432:104|464:136|456:176|456:176,1,110,2|8
456,208,64038,1,0
456,256,64153,2,0,B|456:296|416:288|384:320|392:352|392:352,1,110,2|8
288,336,64615,5,4
288,336,64730,1,0
288,336,64846,2,0,B|288:296|328:304|360:272|352:240|352:240,1,110,2|10
256,200,65307,1,0
352,160,65538,2,0,B|352:120|312:128|280:96|288:56|288:56,2,110,2|8|2
256,200,66230,1,0
256,296,66461,5,4
208,296,66576,1,0
160,296,66692,1,2
112,296,66807,1,0
64,296,66923,1,8
64,104,67153,1,0
112,104,67269,1,0
160,104,67384,1,2
208,104,67499,1,0
256,104,67615,1,8
64,200,67846,1,2
112,200,67961,1,0
160,200,68076,1,10
256,200,68307,5,4
352,248,68538,1,0
352,200,68653,1,0
352,152,68769,1,10
160,248,68999,1,0
160,200,69115,1,0
160,152,69230,1,2
256,200,69461,1,8
352,200,69692,1,2
400,200,69807,1,0
448,200,69923,1,10
256,192,70153,12,0,72923
256,152,73384,5,0
216,184,73499,1,0
232,232,73615,1,0
280,232,73730,1,0
296,184,73846,1,4
