osu file format v7

[General]
AudioFilename: butter.mp3
AudioLeadIn: 1993
PreviewTime: 7384
Countdown: 1
SampleSet: Soft
StackLeniency: 1
Mode: 0
LetterboxInBreaks: 1

[Editor]
Bookmarks: 0,7384,14769,22153,29537,36920,42343,44305,57228,73846
DistanceSpacing: 0.899999976158142
BeatDivisor: 4
GridSize: 8

[Metadata]
Title:Butter
Artist:Ketchup
Creator:whymeman
Version:Melting Dream
Source:
Tags:eee awp lepidopodus

[Difficulty]
HPDrainRate:2
CircleSize:4
OverallDifficulty:4
SliderMultiplier:0.6
SliderTickRate:1

[Events]
//Background and Video events
0,0,"[Background].jpg"
//Break Periods
2,42546,42987
//Storyboard Layer 0 (Background)
//Storyboard Layer 1 (Fail)
//Storyboard Layer 2 (Pass)
//Storyboard Layer 3 (Foreground)
//Storyboard Sound Samples
//Background Colour Transformations
3,100,198,188,6

[TimingPoints]
0,230.769230769231,4,2,1,100,1,0

[Colours]
Combo1 : 185,255,255
Combo2 : 221,181,174
Combo3 : 253,213,119
Combo4 : 188,188,188
Combo5 : 20,116,97

[HitObjects]
96,64,0,2,2,B|224:64|224:64,1,120,2|0
272,64,692,1,2
376,64,1153,1,0
408,112,1384,1,2
376,224,1846,6,2,B|248:224|248:224,1,120,2|0
216,184,2538,1,2
112,176,2999,1,0
64,208,3230,1,2
32,296,3692,6,2,B|32:360|32:360,2,60
144,296,4615,2,2,B|144:232|144:232,2,60
256,296,5538,5,2
296,200,5999,1,2
296,144,6230,1,2
352,136,6461,1,2
240,136,6923,1,2
296,144,7153,1,0
296,88,7384,6,6,B|384:48|384:48,2,90,6|0|2
192,56,8538,1,0
176,104,8769,1,0
184,208,9230,6,6,B|96:256|96:256,2,90,6|0|2
280,160,10384,1,0
328,184,10615,1,0
432,224,11076,6,6,B|432:40|432:40,2,180,6|0|2
328,256,12923,5,6
224,280,13384,1,0
224,168,13846,5,6
328,144,14307,1,0
328,32,14769,5,6
224,64,15230,1,8
176,80,15461,2,0,B|56:120|56:120,1,120,2|8
64,168,16153,1,2
168,176,16615,5,6
208,280,17076,1,8
232,328,17307,2,0,B|272:328|312:328|312:328|360:328,1,120,2|8
408,328,18000,1,2
408,224,18461,6,0,B|408:40|408:40|408:40,2,180,6|2|2
296,224,20307,5,6
184,224,20769,1,8
184,120,21230,5,6
240,120,21461,1,8
240,176,21692,1,2
336,232,22153,6,0,B|368:240|408:232|432:192|432:144|416:120|392:104|360:88|336:96,1,240,4|0
256,160,23538,1,0
176,232,24000,6,0,B|144:240|104:232|80:192|80:144|96:120|120:104|152:88|176:96,1,240,4|0
256,160,25384,1,0
336,232,25846,6,0,B|368:240|408:232|432:192|432:144|416:120|392:104|360:88|336:96,1,240,4|0
256,160,27231,1,0
160,112,27693,6,0,B|168:96|184:64|224:40|288:40|320:56|344:88|360:120|360:120,1,240,0|0
256,160,29076,1,0
256,272,29538,6,4,B|64:272|64:272,2,180,4|2|2
256,160,31384,6,4,B|448:160|448:160,2,180,4|2|2
256,48,33230,6,0,B|212:52|182:77|167:109|166:130|166:130,1,120,4|0
64,120,34153,2,0,B|64:160|88:192|120:208|144:208|144:208,1,120,0|2
168,120,35076,6,0,B|208:120|240:144|256:176|256:200|256:200,1,120,0|0
256,296,36000,2,2,B|296:296|328:272|344:240|344:216|344:216,1,120,2|2
342,225,36692,1,2
256,192,36923,12,2,40039
256,192,40500,12,2,42346
56,48,44307,6,0,B|168:104,1,120,4|8
160,208,45230,1,2
160,264,45461,2,0,B|88:264|88:264|88:264,2,60,8|2|10
216,264,46153,6,0,B|352:264,1,120,4|8
448,264,47076,1,2
408,224,47307,1,8
368,184,47538,1,2
368,128,47769,1,10
424,128,48000,6,0,B|456:128|464:144|472:160|488:160|488:160,2,60,4|0|8
312,128,48923,1,2
256,128,49154,1,8
200,128,49385,1,2
144,128,49616,1,10
88,128,49846,6,0,B|56:128|48:144|40:160|24:160|24:160,2,60,4|0|8
144,216,50769,1,2
176,256,51000,1,8
208,296,51231,1,2
256,200,51692,5,4
216,160,51923,1,2
184,112,52153,1,8
328,112,52615,1,2
296,160,52846,1,8
256,200,53076,1,2
256,256,53307,1,10
208,280,53538,6,0,B|152:312|152:312,2,60,4|0|10
256,256,54230,1,0
304,280,54461,2,0,B|360:312|360:312,2,60,2|8|2
256,256,55153,1,10
256,200,55384,5,4
204,104,55846,2,0,B|232:64|293:70|311:109|311:109|311:109,1,120,8|2
256,144,56538,1,8
256,200,56769,1,2
256,256,56999,1,10
256,192,57230,12,4,58615
464,160,59076,5,4
408,168,59307,1,2
352,176,59538,1,8
248,192,60000,2,0,B|184:192|184:192,3,60,2|8|2|10
136,184,60923,5,4
80,176,61153,1,2
24,168,61384,1,10
80,264,61846,1,2
184,280,62307,1,2
240,288,62538,1,10
240,232,62769,6,0,B|280:224|280:192|304:168|344:168|344:168,1,120,4|8
360,120,63461,1,2
408,96,63692,2,0,B|408:136|448:128|480:160|472:200|472:200,1,120,2|2
472,248,64384,1,10
424,272,64615,6,0,B|384:272|392:312|360:344|328:336|328:336,1,120,4|8
296,296,65307,1,2
272,248,65538,2,0,B|232:248|240:288|208:320|168:312|168:312,1,120,2|2
176,208,66461,6,0,B|48:208|48:208|48:208,1,120,4|8
56,96,67384,1,2
112,96,67615,2,0,B|112:32|112:32|112:32,2,60,8|2|10
168,96,68307,6,0,B|296:96|296:96|296:96,1,120,4|8
352,184,69230,2,0,B|288:184|288:184|288:184,1,60,2|8
264,232,69692,2,0,B|200:232|200:232|200:232,1,60,2|10
256,192,70153,12,0,72923
256,168,73384,5,0
226,213,73615,1,0
280,213,73846,1,4
