osu file format v7

[General]
AudioFilename: butter.mp3
AudioLeadIn: 1996
PreviewTime: 7384
Countdown: 1
SampleSet: Soft
StackLeniency: 0.7
Mode: 0
LetterboxInBreaks: 1

[Editor]
Bookmarks: 22153,29538,36461,44307
DistanceSpacing: 1.20000004768372
BeatDivisor: 1
GridSize: 32

[Metadata]
Title:Butter
Artist:Ketchup
Creator:whymeman
Version:Cold as awp
Source:
Tags:eee awp lepidopodus

[Difficulty]
HPDrainRate:2
CircleSize:4
OverallDifficulty:2
SliderMultiplier:0.5
SliderTickRate:1

[Events]
//Background and Video events
0,0,"[Background].jpg"
//Break Periods
2,22353,27978
2,36660,42747
//Storyboard Layer 0 (Background)
//Storyboard Layer 1 (Fail)
//Storyboard Layer 2 (Pass)
//Storyboard Layer 3 (Foreground)
//Storyboard Sound Samples
//Background Colour Transformations
3,100,255,255,128

[TimingPoints]
0,230.769230769231,4,2,0,100,1,0
12807,-100,4,1,0,40,0,0
13384,-100,4,1,0,30,0,0
14076,-100,4,2,0,100,0,0
21173,-100,4,2,0,70,0,0
22096,-100,4,2,0,50,0,0
22384,-100,4,2,0,100,0,0
73615,-100,4,1,0,30,0,0

[Colours]
Combo1 : 191,96,0
Combo2 : 240,240,0
Combo3 : 253,213,119
Combo4 : 191,0,96
Combo5 : 128,255,128

[HitObjects]
64,128,0,2,0,B|128:96|192:96,1,100
288,96,923,1,2
352,128,1153,1,4
384,256,1846,6,0,B|384:320|320:320,1,100
192,320,2769,1,2
128,288,3000,1,4
96,96,3692,5,8
224,64,4153,1,8
320,128,4615,1,8
416,32,5076,1,8
480,64,5307,1,0
480,128,5538,6,2,B|480:288|256:288,1,300,2|4
192,192,7384,6,0,B|192:96,2,75
192,320,8538,1,8
320,256,9000,5,0
320,192,9230,2,0,B|320:96,2,75
448,160,10384,1,8
448,96,10615,1,8
320,64,11076,6,0,B|224:64,1,75
160,64,11769,2,0,B|159:178,1,100,0|8
160,288,12692,1,0
256,320,12923,5,2
256,64,13846,1,2
256,320,14769,5,4
352,320,15115,1,0
448,320,15461,1,0
352,224,15923,1,8
256,128,16384,5,0
320,64,16615,2,0,B|192:0|96:128,1,250,0|8
64,192,18000,1,8
128,288,18461,5,0
224,288,18807,1,0
320,288,19153,2,0,B|384:192,2,100,0|8|0
256,224,20307,6,0,B|128:224|128:96,2,200,8|8|4
64,64,29538,6,0,C|128:64|128:128|192:128|192:192|256:192|288:224,1,350,0|2
288,288,31384,2,0,B|352:288|416:384|448:288|288:224|384:128,1,300,0|8
256,64,33230,5,0
128,64,33692,1,8
192,160,34153,1,2
64,160,34615,1,8
128,256,35076,2,0,B|192:320|288:288|320:160|416:192,1,300,0|2
128,64,44307,6,0,B|176:32|224:64,1,100,4|2
320,128,45230,1,2
405,212,45692,1,8
372,327,46153,6,0,B|180:327|288:160|96:160,1,300,0|8
256,192,48000,12,0,51692
96,64,52615,5,0
224,64,53076,1,4
352,64,53538,2,0,B|416:160|352:256,1,200
256,320,54923,1,4
160,256,55384,5,0
96,160,55846,1,2
96,96,56076,1,2
160,96,56307,1,2
288,96,56769,1,4
416,96,57230,6,0,B|416:224|331:224,1,150
288,224,58153,2,0,B|173:224,2,100
256,96,59538,5,2
224,32,59769,1,2
192,96,60000,1,2
64,96,60461,1,4
64,224,60923,5,0
160,320,61384,1,2
192,256,61615,1,2
224,320,61846,1,2
352,320,62307,1,4
416,224,62769,6,0,B|320:224|320:128|224:128,1,200,0|2
160,128,63923,1,2
32,128,64384,1,2
64,218,64615,6,0,B|96:314|256:314,1,200
363,314,66000,1,4
384,160,66461,6,0,B|384:64|256:64,1,150
160,64,67615,1,2
96,64,67846,1,2
50,174,68307,6,0,B|50:270|146:270,1,150
320,256,69461,1,2
384,256,69692,1,2
448,256,69923,1,2
256,192,70153,12,0,73730
