osu file format v14

[General]
AudioFilename: DIE YOUNG.mp3
AudioLeadIn: 0
PreviewTime: 37169
Countdown: 0
SampleSet: None
StackLeniency: 0.7
Mode: 3
LetterboxInBreaks: 0
SpecialStyle: 1
WidescreenStoryboard: 0

[Editor]
Bookmarks: 23107,38810,49357,53575,68107,98107,113575,124591,129044
DistanceSpacing: 1.2
BeatDivisor: 4
GridSize: 16
TimelineZoom: 2

[Metadata]
Title:Die young
TitleUnicode:Die young
Artist:Kesha Rose
ArtistUnicode:Kesha Rose
Creator:Ichibi No Kitsune
Version:Paws up! - 4 Keys
Source:RCA records
Tags:Furry Fun Fan Video Vivienne Medrano
BeatmapID:543108
BeatmapSetID:234090

[Difficulty]
HPDrainRate:7
CircleSize:4
OverallDifficulty:7
ApproachRate:5
SliderMultiplier:1.4
SliderTickRate:1

[Events]
//Background and Video events
0,0,"Paws up.png",0,0
Video,0,"DIE YOUNG Fan Animated de Vivienne Medrano.avi"
//Break Periods
//Storyboard Layer 0 (Background)
//Storyboard Layer 1 (Fail)
//Storyboard Layer 2 (Pass)
//Storyboard Layer 3 (Foreground)
//Storyboard Sound Samples

[TimingPoints]
6232,468.75,4,3,0,74,1,0
82403,-100,4,3,0,74,0,1
98107,-100,4,3,0,74,0,0

[HitObjects]
448,192,7169,5,0,0:0:0:0:
320,192,7403,128,2,7638:2:0:0:0:
64,192,7638,1,0,0:0:0:0:
192,192,7638,128,2,7872:2:0:0:0:
448,192,7872,128,2,8107:2:0:0:0:
64,192,8107,1,0,0:0:0:0:
320,192,8107,1,2,2:0:0:0:
192,192,8341,1,2,2:0:0:0:
64,192,8575,1,0,0:0:0:0:
448,192,8575,128,2,8810:2:0:0:0:
320,192,9044,1,0,0:0:0:0:
64,192,9044,1,2,2:0:0:0:
192,192,9513,1,0,0:0:0:0:
448,192,9513,1,2,2:0:0:0:
64,192,9747,1,2,2:0:0:0:
448,192,9982,1,0,0:0:0:0:
192,192,9982,1,2,2:0:0:0:
320,192,10216,1,2,2:0:0:0:
192,192,10450,1,0,0:0:0:0:
448,192,10450,1,2,2:0:0:0:
64,192,10685,128,2,11153:2:0:0:0:
320,192,10919,1,0,0:0:0:0:
192,192,11388,1,4,1:0:0:0:
448,192,11388,1,0,1:0:0:0:
64,192,11857,1,0,1:0:0:0:
320,192,11857,1,4,1:0:0:0:
448,192,12091,1,2,2:0:0:0:
64,192,12325,1,0,0:0:0:0:
320,192,12325,1,2,2:0:0:0:
192,192,12560,1,2,2:0:0:0:
320,192,12794,1,0,0:0:0:0:
448,192,12794,128,2,13263:2:0:0:0:
64,192,13263,1,0,0:0:0:0:
192,192,13263,1,2,2:0:0:0:
320,192,13497,1,2,2:0:0:0:
320,192,13732,1,0,0:0:0:0:
448,192,13732,128,2,14200:2:0:0:0:
192,192,14200,1,0,0:0:0:0:
64,192,14435,1,2,2:0:0:0:
448,192,14669,1,0,0:0:0:0:
192,192,14669,128,2,15138:2:0:0:0:
64,192,15138,1,0,0:0:0:0:
448,192,15138,128,2,15607:2:0:0:0:
320,192,15607,1,0,0:0:0:0:
64,192,15607,128,2,16544:2:0:0:0:
192,192,16075,1,0,0:0:0:0:
448,192,16310,128,2,16544:2:0:0:0:
320,192,16544,1,0,0:0:0:0:
192,192,16778,1,2,2:0:0:0:
448,192,17013,1,0,0:0:0:0:
64,192,17013,1,2,2:0:0:0:
320,192,17247,1,2,2:0:0:0:
64,192,17482,1,0,0:0:0:0:
192,192,17482,128,2,17950:2:0:0:0:
448,192,17716,128,2,17950:2:0:0:0:
320,192,17950,1,0,0:0:0:0:
64,192,17950,1,2,2:0:0:0:
448,192,18185,128,2,19122:2:0:0:0:
64,192,18419,1,0,0:0:0:0:
192,192,18653,128,2,19122:2:0:0:0:
320,192,18888,1,0,0:0:0:0:
64,192,19357,1,0,0:0:0:0:
320,192,19591,1,2,2:0:0:0:
448,192,19825,1,0,0:0:0:0:
192,192,19825,1,2,2:0:0:0:
64,192,20060,1,2,2:0:0:0:
192,192,20294,1,0,0:0:0:0:
448,192,20294,128,2,20763:2:0:0:0:
320,192,20763,1,0,0:0:0:0:
192,192,20763,1,2,2:0:0:0:
64,192,20997,1,2,2:0:0:0:
192,192,21232,1,0,0:0:0:0:
320,192,21232,128,2,21700:2:0:0:0:
192,192,21700,1,0,0:0:0:0:
448,192,21700,1,2,2:0:0:0:
64,192,21935,1,2,2:0:0:0:
448,192,22169,1,0,0:0:0:0:
192,192,22169,1,2,2:0:0:0:
320,192,22403,1,2,2:0:0:0:
192,192,22638,1,0,0:0:0:0:
64,192,22638,128,2,23107:2:0:0:0:
192,192,23107,128,0,23575:1:0:0:0:
448,192,23107,128,4,23575:1:0:0:0:
320,192,23575,1,0,1:0:0:0:
64,192,23575,1,0,0:0:0:0:
448,192,24044,1,0,1:0:0:0:
192,192,24044,1,0,0:0:0:0:
64,192,24513,1,0,1:0:0:0:
192,192,24513,1,0,0:0:0:0:
192,192,24982,1,0,1:0:0:0:
448,192,24982,1,0,0:0:0:0:
448,192,25450,1,0,1:0:0:0:
320,192,25450,1,0,0:0:0:0:
320,192,25685,1,2,2:0:0:0:
192,192,25685,1,0,0:0:0:0:
192,192,25919,1,0,1:0:0:0:
448,192,25919,1,2,2:0:0:0:
64,192,25919,1,0,0:0:0:0:
64,192,26153,1,2,2:0:0:0:
320,192,26153,1,0,0:0:0:0:
320,192,26388,1,0,1:0:0:0:
192,192,26388,1,2,2:0:0:0:
448,192,26388,1,0,0:0:0:0:
448,192,26622,1,2,2:0:0:0:
64,192,26857,1,0,1:0:0:0:
320,192,26857,1,2,2:0:0:0:
448,192,26857,1,0,0:0:0:0:
320,192,27325,1,0,1:0:0:0:
64,192,27325,1,0,0:0:0:0:
64,192,27794,1,0,1:0:0:0:
192,192,27794,1,0,0:0:0:0:
448,192,28263,1,0,1:0:0:0:
320,192,28263,1,0,0:0:0:0:
192,192,28732,1,0,1:0:0:0:
448,192,28732,1,0,0:0:0:0:
320,192,28966,1,2,3:0:0:0:
448,192,29083,1,2,3:0:0:0:
64,192,29200,1,0,1:0:0:0:
320,192,29200,1,0,0:0:0:0:
192,192,29435,1,2,2:0:0:0:
448,192,29669,1,0,1:0:0:0:
64,192,29669,1,2,2:0:0:0:
192,192,29669,1,0,0:0:0:0:
448,192,29903,1,2,2:0:0:0:
320,192,30138,1,0,1:0:0:0:
448,192,30138,1,2,2:0:0:0:
64,192,30138,1,0,0:0:0:0:
64,192,30372,1,2,2:0:0:0:
448,192,30607,1,0,1:0:0:0:
192,192,30607,1,2,2:0:0:0:
320,192,30607,1,0,0:0:0:0:
192,192,30841,1,2,3:0:0:0:
64,192,30958,1,2,3:0:0:0:
192,192,31075,1,0,1:0:0:0:
448,192,31075,1,0,0:0:0:0:
448,192,31544,1,0,1:0:0:0:
320,192,31544,1,0,0:0:0:0:
64,192,31778,1,2,3:0:0:0:
192,192,31896,1,2,3:0:0:0:
64,192,32013,1,0,1:0:0:0:
320,192,32013,1,0,0:0:0:0:
320,192,32482,1,0,1:0:0:0:
192,192,32482,1,0,0:0:0:0:
192,192,32716,1,2,3:0:0:0:
64,192,32833,1,2,3:0:0:0:
192,192,32950,1,0,1:0:0:0:
448,192,32950,1,0,0:0:0:0:
448,192,33419,1,0,1:0:0:0:
64,192,33419,1,0,0:0:0:0:
192,192,33653,1,2,3:0:0:0:
64,192,33771,1,2,3:0:0:0:
192,192,33888,1,0,1:0:0:0:
320,192,33888,1,0,0:0:0:0:
64,192,34357,1,0,1:0:0:0:
448,192,34357,1,0,0:0:0:0:
448,192,34591,1,2,3:0:0:0:
192,192,34591,1,2,2:0:0:0:
320,192,34708,1,2,3:0:0:0:
448,192,34825,1,0,1:0:0:0:
64,192,34825,1,2,2:0:0:0:
192,192,34825,1,0,0:0:0:0:
448,192,35060,1,2,2:0:0:0:
64,192,35294,1,0,1:0:0:0:
192,192,35294,128,2,35763:2:0:0:0:
320,192,35294,1,0,0:0:0:0:
320,192,35528,1,2,3:0:0:0:
448,192,35646,1,2,3:0:0:0:
320,192,35763,1,0,1:0:0:0:
64,192,35763,1,2,2:0:0:0:
448,192,35997,1,2,2:0:0:0:
192,192,36232,1,0,1:0:0:0:
64,192,36232,128,2,36700:2:0:0:0:
448,192,36232,1,0,0:0:0:0:
320,192,36700,1,0,1:0:0:0:
448,192,36700,1,2,2:0:0:0:
192,192,36700,1,0,0:0:0:0:
192,192,36935,1,2,2:0:0:0:
64,192,37169,1,2,2:0:0:0:
192,192,37169,1,0,0:0:0:0:
192,192,37403,1,2,2:0:0:0:
320,192,37638,1,2,2:0:0:0:
448,192,37755,1,4,3:0:0:0:
64,192,37872,1,2,2:0:0:0:
320,192,37989,1,2,3:0:0:0:
448,192,38107,128,6,38575:3:0:0:0:
192,192,38107,1,2,3:0:0:0:
64,192,38107,128,4,38692:3:0:0:0:
192,192,38692,1,8,3:0:0:0:
320,192,38692,128,0,38927:0:0:0:0:
448,192,38927,1,8,1:0:0:0:
64,192,38927,1,0,0:0:0:0:
192,192,39044,128,0,39513:0:0:0:0:
64,192,39161,128,4,39630:3:0:0:0:
448,192,39630,1,8,3:0:0:0:
320,192,39630,128,0,39864:0:0:0:0:
192,192,39982,1,0,0:0:0:0:
448,192,40099,128,4,40567:3:0:0:0:
64,192,40099,1,0,0:0:0:0:
192,192,40333,1,0,0:0:0:0:
64,192,40450,1,0,0:0:0:0:
320,192,40567,1,8,3:0:0:0:
192,192,40567,1,0,0:0:0:0:
64,192,40802,1,0,0:0:0:0:
448,192,41036,1,8,1:0:0:0:
192,192,41036,128,0,41505:0:0:0:0:
320,192,41505,1,8,3:0:0:0:
64,192,41505,128,0,41974:0:0:0:0:
192,192,41974,128,4,42442:3:0:0:0:
320,192,42442,1,8,3:0:0:0:
64,192,42442,1,0,0:0:0:0:
192,192,42677,1,0,0:0:0:0:
448,192,42911,128,4,43380:3:0:0:0:
192,192,42911,128,0,43146:0:0:0:0:
320,192,43380,1,8,3:0:0:0:
64,192,43380,128,0,43614:0:0:0:0:
448,192,43732,1,0,0:0:0:0:
192,192,43849,128,4,44317:3:0:0:0:
320,192,43849,1,0,0:0:0:0:
64,192,44083,1,0,0:0:0:0:
320,192,44317,1,4,3:0:0:0:
448,192,44317,1,0,0:0:0:0:
64,192,44552,1,0,0:0:0:0:
192,192,44786,1,8,1:0:0:0:
448,192,44786,128,0,45255:0:0:0:0:
320,192,45255,1,8,3:0:0:0:
192,192,45255,128,0,45724:0:0:0:0:
448,192,45724,128,4,46192:3:0:0:0:
320,192,46192,1,8,3:0:0:0:
64,192,46192,128,0,46427:0:0:0:0:
192,192,46427,128,0,46896:0:0:0:0:
448,192,46661,128,4,47130:3:0:0:0:
320,192,47130,1,8,3:0:0:0:
64,192,47130,128,0,47364:0:0:0:0:
448,192,47599,128,4,48067:3:0:0:0:
192,192,47599,1,0,0:0:0:0:
64,192,47833,1,0,0:0:0:0:
320,192,48067,1,8,3:0:0:0:
192,192,48067,1,0,0:0:0:0:
64,192,48302,1,0,0:0:0:0:
192,192,48536,1,8,1:0:0:0:
448,192,48536,128,0,49474:0:0:0:0:
64,192,49005,1,8,3:0:0:0:
320,192,49005,128,0,49474:0:0:0:0:
64,192,49474,1,8,3:0:0:0:
192,192,49591,1,0,0:0:0:0:
64,192,49708,1,0,0:0:0:0:
320,192,49942,1,0,0:0:0:0:
192,192,50060,128,0,50294:0:0:0:0:
448,192,50294,128,0,50763:0:0:0:0:
320,192,50763,1,0,0:0:0:0:
192,192,50997,1,2,2:0:0:0:
320,192,51232,1,0,0:0:0:0:
192,192,51466,1,0,0:0:0:0:
64,192,51700,1,0,0:0:0:0:
448,192,51935,1,0,0:0:0:0:
192,192,52169,1,0,0:0:0:0:
448,192,52286,128,0,52521:0:0:0:0:
192,192,52521,1,2,0:0:0:0:
64,192,52755,128,2,53107:2:0:0:0:
448,192,52755,128,2,53107:2:0:0:0:
192,192,53107,128,2,53575:2:0:0:0:
320,192,53107,128,2,53575:2:0:0:0:
448,192,53575,1,0,0:0:0:0:
448,192,54044,1,0,0:0:0:0:
64,192,54044,1,4,3:0:0:0:
320,192,54044,128,2,54513:2:0:0:0:
192,192,54278,1,0,0:0:0:0:
64,192,54396,1,0,0:0:0:0:
448,192,54513,1,0,0:0:0:0:
192,192,54982,1,0,0:0:0:0:
448,192,54982,1,4,3:0:0:0:
320,192,54982,128,2,55450:2:0:0:0:
64,192,55216,1,0,0:0:0:0:
192,192,55216,128,2,55450:2:0:0:0:
448,192,55450,1,0,0:0:0:0:
192,192,55685,1,0,0:0:0:0:
320,192,55685,128,2,56153:2:0:0:0:
64,192,55919,1,0,0:0:0:0:
448,192,55919,1,4,3:0:0:0:
192,192,56036,1,0,0:0:0:0:
448,192,56271,1,0,0:0:0:0:
192,192,56271,128,2,56505:2:0:0:0:
64,192,56388,1,0,0:0:0:0:
320,192,56388,1,8,1:0:0:0:
448,192,56505,128,2,56739:2:0:0:0:
320,192,56857,1,0,0:0:0:0:
192,192,56857,1,4,3:0:0:0:
64,192,56857,128,2,57325:2:0:0:0:
192,192,57325,1,0,0:0:0:0:
320,192,57794,1,0,0:0:0:0:
64,192,57794,1,4,3:0:0:0:
192,192,57794,128,2,58263:2:0:0:0:
448,192,58028,1,0,0:0:0:0:
320,192,58263,1,0,0:0:0:0:
320,192,58732,1,0,0:0:0:0:
448,192,58732,1,4,3:0:0:0:
64,192,58732,128,2,58966:2:0:0:0:
320,192,58966,1,0,0:0:0:0:
192,192,58966,128,2,59200:2:0:0:0:
448,192,59200,1,0,0:0:0:0:
192,192,59435,1,0,0:0:0:0:
320,192,59435,128,2,59669:2:0:0:0:
448,192,59669,1,0,0:0:0:0:
64,192,59669,1,4,3:0:0:0:
192,192,59786,1,0,0:0:0:0:
320,192,59903,1,0,0:0:0:0:
448,192,59903,128,2,60607:2:0:0:0:
64,192,60138,1,8,0:1:0:0:
320,192,60138,128,2,60607:2:0:0:0:
192,192,60138,1,8,1:0:0:0:
192,192,60607,1,4,3:0:0:0:
64,192,60607,128,2,61075:2:0:0:0:
320,192,60841,1,0,0:0:0:0:
448,192,61075,1,0,0:0:0:0:
192,192,61310,1,0,0:0:0:0:
320,192,61544,1,0,0:0:0:0:
64,192,61544,1,4,3:0:0:0:
448,192,61544,128,2,62013:2:0:0:0:
192,192,61778,1,0,0:0:0:0:
320,192,62013,1,0,0:0:0:0:
64,192,62247,1,0,0:0:0:0:
192,192,62482,1,0,0:0:0:0:
448,192,62482,1,4,3:0:0:0:
64,192,62482,128,2,62716:2:0:0:0:
448,192,62716,128,2,62950:2:0:0:0:
192,192,62833,1,0,0:0:0:0:
320,192,62950,1,0,0:0:0:0:
64,192,63067,1,0,0:0:0:0:
192,192,63185,1,0,0:0:0:0:
320,192,63185,128,2,63653:2:0:0:0:
64,192,63419,1,4,3:0:0:0:
448,192,63653,1,0,0:0:0:0:
64,192,63653,128,2,64357:2:0:0:0:
448,192,63888,128,2,64357:2:0:0:0:
192,192,63888,1,8,1:0:0:0:
320,192,63888,1,8,1:0:0:0:
192,192,64357,1,4,3:0:0:0:
64,192,64591,1,0,0:0:0:0:
320,192,64591,128,2,64825:2:0:0:0:
192,192,64825,1,0,0:0:0:0:
448,192,65060,1,0,0:0:0:0:
192,192,65294,1,0,0:0:0:0:
64,192,65294,1,4,3:0:0:0:
448,192,65294,128,2,65763:2:0:0:0:
320,192,65528,1,0,0:0:0:0:
64,192,65763,1,0,0:0:0:0:
192,192,65997,1,0,0:0:0:0:
320,192,66232,1,0,0:0:0:0:
448,192,66232,1,4,3:0:0:0:
192,192,66232,128,2,66700:2:0:0:0:
320,192,66466,128,2,66700:2:0:0:0:
64,192,66583,1,0,0:0:0:0:
448,192,66700,1,0,0:0:0:0:
64,192,66935,1,0,0:0:0:0:
192,192,66935,128,2,67169:2:0:0:0:
320,192,67169,1,4,3:0:0:0:
64,192,67403,1,0,0:0:0:0:
448,192,67521,1,2,3:0:0:0:
192,192,67638,1,2,3:0:0:0:
448,192,67755,1,2,3:0:0:0:
64,192,67755,128,2,68224:2:0:0:0:
320,192,67872,1,2,3:0:0:0:
448,192,67989,1,0,3:0:0:0:
192,192,68107,1,4,3:0:0:0:
320,192,68107,128,2,68575:2:0:0:0:
192,192,68341,1,0,0:0:0:0:
448,192,68575,1,0,0:0:0:0:
64,192,68575,1,8,1:0:0:0:
320,192,68927,1,0,0:0:0:0:
64,192,69044,128,2,69513:2:0:0:0:
192,192,69044,1,0,0:0:0:0:
448,192,69161,1,0,0:0:0:0:
320,192,69513,1,0,0:0:0:0:
192,192,69513,1,4,3:0:0:0:
448,192,69982,128,2,70450:2:0:0:0:
64,192,69982,1,0,0:0:0:0:
192,192,70216,1,0,0:0:0:0:
64,192,70450,1,0,0:0:0:0:
320,192,70450,1,0,3:0:0:0:
320,192,70685,128,2,71153:2:0:0:0:
448,192,70685,1,0,0:0:0:0:
192,192,70919,128,2,71153:2:0:0:0:
64,192,70919,1,0,0:0:0:0:
64,192,71388,128,2,71857:2:0:0:0:
448,192,71388,1,0,0:0:0:0:
192,192,71388,1,8,2:0:0:0:
320,192,71857,128,2,72325:2:0:0:0:
448,192,71857,1,4,3:0:0:0:
192,192,72091,1,0,0:0:0:0:
64,192,72325,1,8,1:0:0:0:
448,192,72560,1,0,0:0:0:0:
192,192,72794,128,2,73263:2:0:0:0:
320,192,72794,1,0,0:0:0:0:
448,192,72794,1,4,3:0:0:0:
64,192,73263,1,0,0:0:0:0:
448,192,73263,1,8,2:0:0:0:
448,192,73732,128,2,74200:2:0:0:0:
320,192,73732,1,0,0:0:0:0:
64,192,73732,1,0,0:0:0:0:
192,192,73966,1,0,0:0:0:0:
320,192,74200,1,0,0:0:0:0:
192,192,74200,1,2,3:0:0:0:
320,192,74435,128,2,75607:2:0:0:0:
64,192,74435,1,0,0:0:0:0:
192,192,74669,1,4,3:0:0:0:
192,192,75138,128,2,75607:2:0:0:0:
448,192,75138,1,0,0:0:0:0:
64,192,75138,1,8,1:0:0:0:
448,192,75607,128,2,76075:2:0:0:0:
64,192,75607,1,4,3:0:0:0:
64,192,75841,1,0,0:0:0:0:
192,192,76075,1,8,2:0:0:0:
320,192,76310,1,0,0:0:0:0:
64,192,76544,128,2,77013:2:0:0:0:
448,192,76544,1,0,0:0:0:0:
320,192,76544,1,2,3:0:0:0:
192,192,77013,1,0,0:0:0:0:
448,192,77013,1,0,3:0:0:0:
192,192,77482,128,2,77950:2:0:0:0:
448,192,77482,1,0,0:0:0:0:
320,192,77482,1,4,3:0:0:0:
64,192,77716,1,0,0:0:0:0:
448,192,77950,1,0,0:0:0:0:
64,192,77950,1,8,2:0:0:0:
320,192,78185,128,2,79357:2:0:0:0:
64,192,78185,128,0,78653:0:0:0:0:
448,192,78419,1,8,3:0:0:0:
192,192,78653,128,0,78888:1:0:0:0:
448,192,78888,128,2,79357:2:0:0:0:
64,192,78888,128,0,79357:1:0:0:0:
192,192,79357,128,2,79825:2:0:0:0:
448,192,79591,1,0,0:0:0:0:
320,192,79825,1,8,1:0:0:0:
64,192,80060,1,0,0:0:0:0:
320,192,80294,128,2,80763:2:0:0:0:
192,192,80294,1,0,0:0:0:0:
448,192,80294,1,4,3:0:0:0:
64,192,80528,1,0,0:0:0:0:
192,192,80646,1,0,0:0:0:0:
448,192,80763,1,0,3:0:0:0:
64,192,80880,1,0,0:0:0:0:
192,192,81232,128,2,81700:2:0:0:0:
448,192,81232,1,0,0:0:0:0:
64,192,81232,1,4,3:0:0:0:
320,192,81466,1,0,0:0:0:0:
448,192,81700,1,0,0:0:0:0:
64,192,81700,1,8,2:0:0:0:
64,192,81935,128,2,82638:2:0:0:0:
192,192,81935,1,0,0:0:0:0:
192,192,82169,1,0,0:0:0:0:
192,192,82403,1,0,0:0:0:0:
448,192,82403,128,0,82638:0:0:0:0:
192,192,82638,1,0,0:0:0:0:
320,192,82638,128,0,82872:0:0:0:0:
192,192,82872,1,0,0:0:0:0:
64,192,82989,1,0,0:0:0:0:
64,192,83224,1,8,2:0:0:0:
320,192,83224,1,8,2:0:0:0:
192,192,83224,128,0,83692:0:0:0:0:
64,192,83692,1,8,2:0:0:0:
320,192,83692,1,8,2:0:0:0:
448,192,83692,128,0,84161:0:0:0:0:
192,192,84161,1,8,2:0:0:0:
320,192,84161,1,8,2:0:0:0:
64,192,84161,128,0,84630:0:0:0:0:
192,192,84630,1,8,2:0:0:0:
448,192,84630,1,8,2:0:0:0:
320,192,84630,128,0,84864:0:0:0:0:
448,192,84864,1,0,0:0:0:0:
64,192,85099,1,8,2:0:0:0:
192,192,85099,1,8,2:0:0:0:
320,192,85099,1,0,0:0:0:0:
320,192,85333,1,0,0:0:0:0:
64,192,85450,1,0,0:0:0:0:
192,192,85567,1,8,2:0:0:0:
448,192,85567,1,8,2:0:0:0:
320,192,85567,128,0,85802:0:0:0:0:
64,192,85802,1,0,0:0:0:0:
192,192,86036,1,8,2:0:0:0:
448,192,86036,1,8,2:0:0:0:
320,192,86505,1,0,1:0:0:0:
448,192,86505,1,8,2:0:0:0:
64,192,86739,1,8,2:0:0:0:
192,192,86739,1,0,1:0:0:0:
320,192,86974,1,0,1:0:0:0:
448,192,86974,1,8,2:0:0:0:
192,192,87208,128,0,87442:0:0:0:0:
64,192,87442,1,8,2:0:0:0:
320,192,87442,1,8,2:0:0:0:
448,192,87442,128,0,87677:0:0:0:0:
320,192,87677,128,0,87911:0:0:0:0:
192,192,87911,1,8,2:0:0:0:
448,192,87911,1,8,2:0:0:0:
64,192,87911,128,0,88380:0:0:0:0:
192,192,88380,1,8,2:0:0:0:
448,192,88380,1,8,2:0:0:0:
320,192,88380,1,0,0:0:0:0:
192,192,88614,1,0,0:0:0:0:
64,192,88849,1,8,2:0:0:0:
320,192,88849,1,8,2:0:0:0:
448,192,88849,128,0,89317:0:0:0:0:
64,192,89317,1,8,2:0:0:0:
320,192,89317,1,8,2:0:0:0:
192,192,89317,128,0,89786:0:0:0:0:
64,192,89552,128,0,89786:0:0:0:0:
448,192,89786,1,8,2:0:0:0:
320,192,89786,128,8,90255:2:0:0:0:
192,192,90255,1,8,2:0:0:0:
448,192,90255,1,8,2:0:0:0:
64,192,90255,128,0,90724:0:0:0:0:
448,192,90489,128,0,90724:0:0:0:0:
192,192,90724,1,8,2:0:0:0:
320,192,90724,128,8,91427:2:0:0:0:
64,192,90958,1,8,2:0:0:0:
192,192,90958,1,0,1:0:0:0:
192,192,91075,1,0,1:0:0:0:
448,192,91075,1,8,2:0:0:0:
64,192,91192,1,0,1:0:0:0:
448,192,91192,1,8,2:0:0:0:
64,192,91427,1,8,2:0:0:0:
448,192,91427,1,8,2:0:0:0:
192,192,91427,128,0,91661:0:0:0:0:
64,192,91661,1,8,2:0:0:0:
320,192,91661,1,8,2:0:0:0:
448,192,91896,128,0,92130:0:0:0:0:
192,192,92130,1,8,2:0:0:0:
320,192,92130,1,8,2:0:0:0:
64,192,92130,128,0,92364:0:0:0:0:
320,192,92364,128,0,92599:0:0:0:0:
192,192,92599,1,8,2:0:0:0:
448,192,92599,1,8,2:0:0:0:
64,192,92599,128,0,92833:0:0:0:0:
320,192,92833,128,0,93067:0:0:0:0:
192,192,93067,1,8,2:0:0:0:
448,192,93067,1,8,2:0:0:0:
64,192,93067,128,0,93302:0:0:0:0:
320,192,93302,128,0,93536:0:0:0:0:
64,192,93536,1,8,2:0:0:0:
192,192,93536,1,8,2:0:0:0:
448,192,93536,128,0,94239:0:0:0:0:
320,192,93771,1,0,1:0:0:0:
64,192,93771,1,8,2:0:0:0:
192,192,93888,1,0,1:0:0:0:
320,192,93888,1,8,2:0:0:0:
64,192,94005,1,8,2:0:0:0:
320,192,94005,1,0,1:0:0:0:
192,192,94239,1,8,2:0:0:0:
320,192,94239,1,8,2:0:0:0:
64,192,94474,1,8,2:0:0:0:
448,192,94474,1,8,2:0:0:0:
320,192,94708,128,0,94942:0:0:0:0:
192,192,94942,1,8,2:0:0:0:
448,192,94942,1,8,2:0:0:0:
64,192,94942,128,0,95177:0:0:0:0:
448,192,95177,128,0,95411:0:0:0:0:
64,192,95411,1,8,2:0:0:0:
320,192,95411,1,8,2:0:0:0:
192,192,95411,128,0,95880:0:0:0:0:
320,192,95880,1,8,2:0:0:0:
448,192,95880,1,8,2:0:0:0:
64,192,95880,128,0,96114:0:0:0:0:
320,192,96114,128,0,96349:0:0:0:0:
192,192,96349,1,8,2:0:0:0:
448,192,96349,1,8,2:0:0:0:
64,192,96349,128,0,96817:0:0:0:0:
320,192,96817,1,8,2:0:0:0:
448,192,96817,1,8,2:0:0:0:
192,192,96817,128,0,97052:0:0:0:0:
64,192,97052,1,8,2:0:0:0:
448,192,97052,1,8,2:0:0:0:
320,192,97052,128,0,97286:0:0:0:0:
64,192,97286,128,0,97521:0:0:0:0:
192,192,97521,128,0,98107:0:0:0:0:
320,192,97521,128,0,97755:0:0:0:0:
64,192,97755,128,0,98107:0:0:0:0:
448,192,97872,1,0,0:0:0:0:
320,192,97989,1,0,0:0:0:0:
448,192,98107,128,0,98810:0:0:0:0:
320,192,98224,128,0,98692:0:0:0:0:
192,192,98341,128,0,98810:0:0:0:0:
64,192,98692,1,0,1:0:0:0:
320,192,99161,128,2,99630:2:0:0:0:
64,192,99161,1,0,0:0:0:0:
192,192,99630,1,0,1:0:0:0:
448,192,99630,1,0,0:0:0:0:
64,192,99747,1,0,0:0:0:0:
192,192,99864,1,0,0:0:0:0:
320,192,100099,128,2,100567:2:0:0:0:
448,192,100099,1,0,0:0:0:0:
192,192,100333,1,0,0:0:0:0:
64,192,100450,1,0,0:0:0:0:
192,192,100567,1,0,1:0:0:0:
448,192,100802,128,2,101505:2:0:0:0:
64,192,100802,128,0,101271:0:0:0:0:
192,192,101036,1,4,3:0:0:0:
320,192,101505,1,8,2:0:0:0:
64,192,101505,1,0,1:0:0:0:
192,192,101505,128,2,101974:2:0:0:0:
320,192,101974,1,4,3:0:0:0:
448,192,101974,128,2,102442:2:0:0:0:
64,192,102208,1,0,0:0:0:0:
320,192,102442,1,0,1:0:0:0:
192,192,102442,1,0,0:0:0:0:
320,192,102677,1,0,0:0:0:0:
192,192,102911,128,2,103380:2:0:0:0:
448,192,102911,128,0,103380:0:0:0:0:
320,192,103146,128,0,103380:0:0:0:0:
64,192,103380,1,0,1:0:0:0:
192,192,103614,1,0,0:0:0:0:
448,192,103849,128,2,104317:2:0:0:0:
320,192,103849,1,0,0:0:0:0:
192,192,104083,1,0,0:0:0:0:
320,192,104317,1,0,1:0:0:0:
64,192,104317,1,0,0:0:0:0:
64,192,104552,128,2,105255:2:0:0:0:
192,192,104552,128,0,104786:0:0:0:0:
320,192,104786,1,4,3:0:0:0:
448,192,104786,128,0,105021:0:0:0:0:
448,192,105255,1,0,1:0:0:0:
320,192,105255,128,2,105724:2:0:0:0:
192,192,105255,128,0,105724:0:0:0:0:
448,192,105724,128,2,106192:2:0:0:0:
64,192,105724,128,0,106896:0:0:0:0:
320,192,106192,1,0,1:0:0:0:
448,192,106427,128,0,106896:0:0:0:0:
192,192,106661,128,2,107130:2:0:0:0:
320,192,106896,1,0,0:0:0:0:
64,192,107130,1,0,1:0:0:0:
448,192,107130,1,0,0:0:0:0:
320,192,107364,1,0,0:0:0:0:
448,192,107599,128,2,108067:2:0:0:0:
192,192,107599,1,0,0:0:0:0:
64,192,107833,1,0,0:0:0:0:
320,192,108067,1,0,1:0:0:0:
192,192,108067,1,0,0:0:0:0:
64,192,108302,128,2,108771:2:0:0:0:
448,192,108302,128,0,109005:0:0:0:0:
192,192,108771,1,0,1:0:0:0:
320,192,108771,128,2,109474:2:0:0:0:
192,192,109005,1,8,2:0:0:0:
64,192,109005,1,0,0:0:0:0:
192,192,109474,1,0,1:0:0:0:
64,192,109474,128,2,109942:2:0:0:0:
448,192,109708,1,0,0:0:0:0:
192,192,109942,1,0,1:0:0:0:
320,192,109942,1,0,0:0:0:0:
448,192,110177,1,0,0:0:0:0:
192,192,110411,128,2,110880:2:0:0:0:
320,192,110411,1,0,0:0:0:0:
320,192,110880,1,0,1:0:0:0:
64,192,110880,1,0,0:0:0:0:
448,192,111114,1,0,0:0:0:0:
64,192,111349,128,2,111817:2:0:0:0:
320,192,111349,1,0,0:0:0:0:
192,192,111817,1,0,1:0:0:0:
448,192,111817,1,0,0:0:0:0:
320,192,112052,128,2,112755:2:0:0:0:
192,192,112052,1,0,0:0:0:0:
192,192,112286,1,0,0:0:0:0:
64,192,112403,1,0,1:0:0:0:
448,192,112403,1,8,2:0:0:0:
192,192,112521,1,0,0:0:0:0:
448,192,112755,1,0,1:0:0:0:
192,192,112755,128,2,113224:2:0:0:0:
64,192,112755,1,0,0:0:0:0:
320,192,112989,1,0,0:0:0:0:
64,192,113224,1,0,1:0:0:0:
448,192,113224,128,2,113692:2:0:0:0:
320,192,113224,128,0,113692:0:0:0:0:
192,192,113692,1,0,1:0:0:0:
448,192,113927,128,0,114161:0:0:0:0:
192,192,114161,128,0,114630:0:0:0:0:
64,192,114161,128,0,114630:3:0:0:0:
320,192,114630,128,0,114864:0:0:0:0:
448,192,114630,1,0,1:0:0:0:
192,192,114982,1,0,0:0:0:0:
448,192,115099,1,0,0:0:0:0:
320,192,115099,128,0,115567:3:0:0:0:
192,192,115333,1,0,0:0:0:0:
64,192,115450,1,0,0:0:0:0:
192,192,115567,1,0,0:0:0:0:
448,192,115567,1,0,1:0:0:0:
192,192,115802,1,0,0:0:0:0:
64,192,115802,128,4,116036:3:0:0:0:
320,192,116036,1,0,0:0:0:0:
448,192,116036,1,0,0:0:0:0:
192,192,116036,128,4,116271:3:0:0:0:
64,192,116271,1,0,0:0:0:0:
320,192,116271,1,0,0:0:0:0:
320,192,116505,1,0,0:0:0:0:
448,192,116505,128,0,116974:0:0:0:0:
192,192,116505,128,0,116974:0:0:0:0:
64,192,116974,128,4,117442:3:0:0:0:
320,192,116974,128,0,117442:0:0:0:0:
192,192,117325,1,0,0:0:0:0:
448,192,117442,1,0,0:0:0:0:
320,192,117677,1,0,0:0:0:0:
192,192,117911,1,0,0:0:0:0:
64,192,117911,128,4,118380:3:0:0:0:
448,192,118380,1,0,1:0:0:0:
320,192,118380,1,0,0:0:0:0:
64,192,118614,1,0,0:0:0:0:
192,192,118849,1,0,0:0:0:0:
320,192,118849,128,4,119317:3:0:0:0:
64,192,119083,1,0,0:0:0:0:
192,192,119317,1,0,0:0:0:0:
448,192,119317,1,0,1:0:0:0:
64,192,119552,1,0,0:0:0:0:
192,192,119552,128,4,120021:3:0:0:0:
320,192,119786,1,0,0:0:0:0:
448,192,119786,1,0,0:0:0:0:
64,192,120021,1,0,0:0:0:0:
320,192,120021,1,0,0:0:0:0:
448,192,120021,1,0,1:0:0:0:
192,192,120255,128,0,120724:0:0:0:0:
448,192,120255,1,0,0:0:0:0:
320,192,120255,128,4,120724:3:0:0:0:
64,192,120489,1,0,0:0:0:0:
64,192,120724,128,0,121192:0:0:0:0:
448,192,120724,128,0,121192:1:0:0:0:
192,192,121192,1,0,1:0:0:0:
320,192,121310,1,0,0:0:0:0:
448,192,121427,1,0,0:0:0:0:
64,192,121661,128,0,121896:0:0:0:0:
448,192,121661,128,4,122130:3:0:0:0:
192,192,122130,1,0,0:0:0:0:
64,192,122130,1,0,1:0:0:0:
320,192,122599,1,0,0:0:0:0:
64,192,122599,128,4,123067:3:0:0:0:
448,192,122833,1,0,0:0:0:0:
320,192,122833,128,4,123067:3:0:0:0:
192,192,123067,1,0,0:0:0:0:
448,192,123067,128,4,123302:3:0:0:0:
320,192,123302,1,0,0:0:0:0:
64,192,123302,128,4,124005:3:0:0:0:
192,192,123419,1,0,0:0:0:0:
320,192,123536,1,0,0:0:0:0:
448,192,123888,1,0,0:0:0:0:
192,192,124005,1,0,0:0:0:0:
320,192,124005,1,0,1:0:0:0:
64,192,124239,1,0,0:0:0:0:
192,192,124239,128,4,124474:3:0:0:0:
448,192,124474,128,4,124942:3:0:0:0:
320,192,124474,1,0,1:0:0:0:
320,192,124708,1,0,0:0:0:0:
192,192,124942,1,0,0:0:0:0:
64,192,124942,1,0,1:0:0:0:
448,192,125177,1,0,0:0:0:0:
320,192,125177,128,4,125411:3:0:0:0:
192,192,125411,1,0,0:0:0:0:
64,192,125411,128,4,125880:3:0:0:0:
448,192,125646,1,0,1:0:0:0:
192,192,125880,1,0,1:0:0:0:
448,192,125880,1,0,0:0:0:0:
64,192,126114,1,0,0:0:0:0:
448,192,126349,128,0,126583:0:0:0:0:
320,192,126349,128,4,126817:3:0:0:0:
192,192,126817,1,0,0:0:0:0:
448,192,126817,1,0,1:0:0:0:
320,192,127052,1,0,0:0:0:0:
448,192,127052,128,4,127521:3:0:0:0:
64,192,127286,1,0,0:0:0:0:
320,192,127521,1,0,0:0:0:0:
64,192,127521,1,0,1:0:0:0:
192,192,127755,128,0,127989:0:0:0:0:
64,192,127755,128,4,128224:3:0:0:0:
320,192,128224,128,0,128458:0:0:0:0:
192,192,128224,1,0,1:0:0:0:
64,192,128692,128,4,129161:1:0:0:0:
448,192,128692,128,4,129161:1:0:0:0:
