osu file format v12

[General]
AudioFilename: 06. Zero Gravity.mp3
AudioLeadIn: 0
PreviewTime: 71310
Countdown: 0
SampleSet: Normal
StackLeniency: 0.7
Mode: 0
LetterboxInBreaks: 0

[Editor]
Bookmarks: 77403
DistanceSpacing: 0.8
BeatDivisor: 4
GridSize: 4

[Metadata]
Title:Zero Gravity
TitleUnicode:Zero Gravity
Artist:Kerli
ArtistUnicode:Kerli
Creator:Lehon
Version:Normal
Source:
Tags:
BeatmapID:211322
BeatmapSetID:72081

[Difficulty]
HPDrainRate:3
CircleSize:3
OverallDifficulty:3
ApproachRate:5
SliderMultiplier:1.6
SliderTickRate:1

[Events]
//Background and Video events
0,0,"Konachan1.jpg",0,0
//Break Periods
2,45294,58860
2,120260,133860
2,150260,160110
2,180260,186360
//Storyboard Layer 0 (Background)
//Storyboard Layer 1 (Fail)
//Storyboard Layer 2 (Pass)
//Storyboard Layer 3 (Foreground)
//Storyboard Sound Samples
//Background Colour Transformations
3,100,163,162,255

[TimingPoints]
60,468.75,4,2,0,75,1,0
7560,-133.333333333333,4,2,0,75,0,0
15050,-100,4,2,0,75,0,0
60060,-133.333333333333,4,2,0,75,0,0
67560,-133.333333333333,4,1,0,50,0,0
75060,-100,4,1,0,50,0,1
90060,-100,4,2,0,75,0,0
135060,-133.333333333333,4,2,0,75,0,0
142560,-133.333333333333,4,1,0,50,0,0
165060,-100,4,1,0,50,0,1
180060,-100,4,2,0,75,0,0
187560,-100,4,1,0,75,0,0

[Colours]
Combo1 : 43,43,255
Combo2 : 55,155,255
Combo3 : 159,207,255
Combo4 : 128,128,255

[HitObjects]
256,88,7560,1,6,0:0:0:0:
200,224,8263,2,0,P|264:240|328:216,2,120.000004577637,2|2|0,0:0|0:0|0:0,0:0:0:0:
184,80,10606,1,0,0:0:0:0:
328,80,11310,1,6,0:0:0:0:
352,224,12013,5,2,0:0:0:0:
256,224,12481,1,2,0:0:0:0:
160,224,12950,1,0,0:0:0:0:
256,320,14356,1,0,0:0:0:0:
80,240,15060,6,0,B|32:208|32:208|24:136,2,120
100,316,15997,1,0,0:0:0:0:
256,192,16466,1,8,0:0:0:0:
432,240,16935,2,0,B|480:208|480:208|488:136,2,120
412,316,17872,1,0,0:0:0:0:
256,328,18341,1,8,0:0:0:0:
192,216,18810,5,0,0:0:0:0:
320,216,19278,1,8,0:0:0:0:
336,88,19747,2,0,L|424:88,2,80,0|0|8,0:0|0:0|0:0,0:0:0:0:
176,88,20685,2,0,L|88:88,2,80,0|0|8,0:0|0:0|0:0,0:0:0:0:
176,216,21622,2,0,B|256:240|256:240|360:208,2,160,0|8|0,0:0|0:0|0:0,0:0:0:0:
120,328,23028,5,8,0:0:0:0:
256,352,23497,1,0,0:0:0:0:
392,328,23966,1,8,0:0:0:0:
360,200,24435,2,0,P|352:128|376:80,2,120
420,252,25372,1,0,0:0:0:0:
256,344,25841,1,8,0:0:0:0:
152,200,26310,6,0,P|160:128|136:80,2,120
92,252,27247,1,0,0:0:0:0:
256,192,27716,1,8,0:0:0:0:
216,56,28185,2,0,B|176:48|176:48|128:64|128:64|72:56,2,120
296,56,29122,2,0,B|336:48|336:48|384:64|384:64|440:56,2,120,0|8|8,0:0|0:0|0:0,0:0:0:0:
256,128,30060,5,0,0:0:0:0:
180,232,30528,2,0,L|180:152,2,80,8|0|0,0:0|0:0|0:0,0:0:0:0:
100,184,31231,2,0,L|100:264,2,80,0|8|8,0:0|0:0|0:0,0:0:0:0:
116,104,31935,1,0,0:0:0:0:
332,232,32403,2,0,L|332:152,2,80,8|0|0,0:0|0:0|0:0,0:0:0:0:
412,184,33106,2,0,L|412:264,2,80,0|8|8,0:0|0:0|0:0,0:0:0:0:
396,104,33810,5,0,0:0:0:0:
312,8,34278,1,8,0:0:0:0:
256,136,34747,1,0,0:0:0:0:
200,8,35216,1,8,0:0:0:0:
116,104,35685,1,0,0:0:0:0:
192,224,36153,1,8,0:0:0:0:
256,336,36622,1,0,0:0:0:0:
320,224,37091,1,8,0:0:0:0:
400,120,37560,1,0,0:0:0:0:
288,56,38028,6,0,L|192:56,1,80,8|0,0:0|0:0,0:0:0:0:
144,136,38497,2,0,L|224:136,2,80,0|0|8,0:0|0:0|0:0,0:0:0:0:
152,240,39435,1,0,0:0:0:0:
224,328,39903,2,0,L|320:328,1,80,8|0,0:0|0:0,0:0:0:0:
368,248,40372,2,0,L|288:248,2,80,0|0|8,0:0|0:0|0:0,0:0:0:0:
328,72,41310,2,0,B|288:40|288:40|224:40|224:40|168:80,2,160,0|8|0,0:0|0:0|0:0,0:0:0:0:
256,156,42716,1,8,0:0:0:0:
184,224,43185,2,0,P|256:304|320:200,2,240,0|0|8,0:0|0:0|0:0,0:0:0:0:
256,120,45060,1,4,0:0:0:0:
168,280,60060,6,0,B|256:304|256:304|352:280,2,180.000006866455,4|0|8,0:0|0:0|0:0,0:0:0:0:
64,208,61935,2,0,P|64:144|112:104,1,120.000004577637,0|8,0:0|0:0,0:0:0:0:
160,184,62872,2,0,P|198:147|198:83,1,120.000004577637,0|8,0:0|0:0,0:0:0:0:
313,83,63810,6,0,P|313:147|352:184,1,120.000004577637,0|8,0:0|0:0,0:0:0:0:
409,107,64747,2,0,P|448:144|448:208,1,120.000004577637,0|8,0:0|0:0,0:0:0:0:
342,282,65685,2,0,B|256:304|256:304|168:280,2,180.000006866455,0|0|8,0:0|0:0|0:0,0:0:0:0:
344,184,67560,5,4,0:0:0:0:
304,96,68028,1,8,0:0:0:0:
208,96,68497,1,0,0:0:0:0:
168,184,68966,1,8,0:0:0:0:
192,280,69435,2,0,L|176:352,2,60.0000022888184,0|0|8,0:0|0:0|0:0,0:0:0:0:
256,232,70138,1,0,0:0:0:0:
320,280,70372,2,0,L|336:352,2,60.0000022888184,0|0|8,0:0|0:0|0:0,0:0:0:0:
256,192,71310,12,0,74591,2:0:0:0:
336,112,75060,6,0,L|352:32,2,80,8|0|8,0:0|0:0|0:0,0:0:0:0:
400,160,75763,2,0,L|416:240,2,80,0|8|0,0:0|0:0|0:0,0:0:0:0:
328,192,76466,1,8,0:0:0:0:
256,288,76935,1,8,0:0:0:0:
184,192,77403,5,8,0:0:0:0:
112,160,77638,2,0,L|96:238,2,80,0|8|0,0:0|0:0|0:0,0:0:0:0:
176,112,78341,2,0,L|160:33,2,80,8|8|8,0:0|0:0|0:0,0:0:0:0:
256,16,79278,5,8,0:0:0:0:
328,112,79747,1,8,0:0:0:0:
216,208,80216,2,0,L|304:208,1,80,8|0,0:0|0:0,0:0:0:0:
320,288,80685,2,10,P|256:328|184:280,2,160
296,128,82091,2,10,L|208:128,2,80,10|10|8,0:0|0:0|0:0,0:0:0:0:
424,128,83028,5,8,0:0:0:0:
360,16,83497,1,8,0:0:0:0:
296,128,83966,1,8,0:0:0:0:
216,256,84435,1,8,0:0:0:0:
152,368,84904,1,8,0:0:0:0:
88,256,85373,1,8,0:0:0:0:
216,256,85841,2,8,L|304:256,2,80
168,136,86778,5,8,0:0:0:0:
256,48,87247,1,8,0:0:0:0:
344,136,87716,1,8,0:0:0:0:
256,192,88185,12,4,90060,2:0:0:0:
176,192,91935,5,0,0:0:0:0:
192,320,92403,1,0,0:0:0:0:
320,320,92872,1,0,0:0:0:0:
336,192,93341,1,8,0:0:0:0:
392,40,93810,6,0,B|456:48|456:48|496:112,2,120
312,32,94747,1,0,0:0:0:0:
256,192,95216,1,8,0:0:0:0:
120,40,95685,2,0,B|56:48|56:48|16:112,2,120
200,32,96622,1,0,0:0:0:0:
256,192,97091,1,8,0:0:0:0:
216,320,97560,6,0,L|80:320,2,120
216,240,98497,2,0,L|128:240,2,80,0|0|8,0:0|0:0|0:0,0:0:0:0:
216,160,99200,1,8,0:0:0:0:
296,144,99435,2,0,L|416:144,2,120
296,64,100372,2,0,L|376:64,2,80,0|0|8,0:0|0:0|0:0,0:0:0:0:
224,32,101075,1,8,0:0:0:0:
160,80,101310,6,0,P|104:56|32:96,2,120
104,136,102247,2,0,P|88:176|104:232,1,80
168,184,102716,1,8,0:0:0:0:
352,304,103185,6,0,P|408:328|480:288,2,120
408,248,104122,2,0,P|424:208|408:152,1,80
344,200,104591,1,8,0:0:0:0:
200,144,105060,6,0,B|136:128|136:128|120:184,2,120
216,64,105997,2,0,L|88:32,2,120,0|8|8,0:0|0:0|0:0,0:0:0:0:
296,64,106935,6,0,L|412:34,2,120,0|0|0,0:0|0:0|0:0,0:0:0:0:
312,144,107872,2,0,B|376:128|376:128|390:179,2,120,0|8|8,0:0|0:0|0:0,0:0:0:0:
256,88,108810,5,0,0:0:0:0:
320,288,109278,1,8,0:0:0:0:
192,288,109747,1,0,0:0:0:0:
176,160,110216,2,0,P|112:176|16:144,2,160,8|0|8,0:0|0:0|0:0,0:0:0:0:
256,136,111388,1,0,0:0:0:0:
336,160,111622,2,0,P|400:176|496:144,2,160,0|8|0,0:0|0:0|0:0,0:0:0:0:
416,80,113028,6,0,L|496:48,2,80,8|0|0,0:0|0:0|0:0,0:0:0:0:
336,64,113731,2,0,P|312:24|264:0,2,80,0|8|8,0:0|0:0|0:0,0:0:0:0:
360,140,114435,1,0,0:0:0:0:
152,140,114903,5,8,0:0:0:0:
176,64,115138,2,0,P|200:24|227:6,2,80
96,80,115842,2,0,L|21:50,2,80,8|8|0,0:0|0:0|0:0,0:0:0:0:
184,192,116778,5,8,0:0:0:0:
328,192,117247,1,0,0:0:0:0:
400,88,117716,1,8,0:0:0:0:
328,192,118185,2,0,L|320:320,2,120
184,192,119122,2,0,L|192:320,2,120,0|8|8,0:0|0:0|0:0,0:0:0:0:
256,152,120060,1,4,0:0:0:0:
344,104,135060,6,0,B|256:80|256:80|160:104,2,180.000006866455,4|0|8,0:0|0:0|0:0,0:0:0:0:
448,176,136935,2,0,P|448:240|400:280,1,120.000004577637,0|8,0:0|0:0,0:0:0:0:
352,200,137872,2,0,P|314:237|314:301,1,120.000004577637,0|8,0:0|0:0,0:0:0:0:
199,301,138810,6,0,P|199:237|160:200,1,120.000004577637,0|8,0:0|0:0,0:0:0:0:
103,277,139747,2,0,P|64:240|64:176,1,120.000004577637,0|8,0:0|0:0,0:0:0:0:
170,102,140685,2,0,B|256:80|256:80|344:104,2,180.000006866455,0|0|8,0:0|0:0|0:0,0:0:0:0:
168,200,142560,5,0,0:0:0:0:
208,288,143028,1,8,0:0:0:0:
304,288,143497,1,0,0:0:0:0:
344,200,143966,1,8,0:0:0:0:
320,104,144435,2,0,L|336:32,2,60.0000022888184,0|0|8,0:0|0:0|0:0,0:0:0:0:
256,152,145138,1,0,0:0:0:0:
192,104,145372,2,0,L|176:32,2,60.0000022888184,0|0|8,0:0|0:0|0:0,0:0:0:0:
256,192,146310,12,0,149591,2:0:0:0:
256,80,150060,5,4,0:0:0:0:
216,144,161310,5,8,0:0:0:0:
312,160,161778,1,8,0:0:0:0:
296,256,162247,1,8,0:0:0:0:
200,240,162716,1,8,0:0:0:0:
256,192,163185,12,0,164591,0:0:0:0:
176,272,165060,6,0,L|160:352,2,80,8|0|8,0:0|0:0|0:0,0:0:0:0:
112,224,165763,2,0,L|96:144,2,80,0|8|0,0:0|0:0|0:0,0:0:0:0:
184,192,166466,1,8,0:0:0:0:
256,96,166935,1,8,0:0:0:0:
328,192,167403,5,8,0:0:0:0:
400,224,167638,2,0,L|415:145,2,80,0|8|0,0:0|0:0|0:0,0:0:0:0:
336,272,168341,2,0,L|351:350,2,80,8|8|8,0:0|0:0|0:0,0:0:0:0:
256,368,169278,5,8,0:0:0:0:
184,272,169747,1,8,0:0:0:0:
296,176,170216,2,0,L|208:176,1,80,8|8,0:0|0:0,0:0:0:0:
192,96,170685,2,10,P|256:56|328:104,2,160
216,256,172091,2,10,L|304:256,2,80,10|10|8,0:0|0:0|0:0,0:0:0:0:
88,256,173028,5,8,0:0:0:0:
152,368,173497,1,8,0:0:0:0:
216,256,173966,1,8,0:0:0:0:
296,128,174435,1,8,0:0:0:0:
360,16,174904,1,8,0:0:0:0:
424,128,175373,1,8,0:0:0:0:
296,128,175841,2,8,L|208:128,2,80
344,248,176778,5,8,0:0:0:0:
256,336,177247,1,8,0:0:0:0:
168,248,177716,1,8,0:0:0:0:
256,192,178185,12,4,180060,0:0:0:0:
128,192,187560,6,0,L|216:192,2,80
128,112,188263,2,0,L|32:112,2,80,0|0|0,0:0|0:0|0:0,0:0:0:0:
128,32,188966,2,8,P|176:24|224:48,1,80
280,64,189435,6,0,B|392:32|392:32|520:72,2,240,0|0|8,0:0|0:0|0:0,0:0:0:0:
272,144,191075,1,8,0:0:0:0:
280,224,191310,6,0,P|368:256|432:216,1,160
432,336,192247,2,0,L|256:336,1,160,0|8,0:0|0:0,0:0:0:0:
216,276,192950,1,8,0:0:0:0:
144,320,193185,6,0,P|96:336|56:336,1,80
40,256,193653,2,0,P|96:248|128:232,1,80
112,160,194122,2,0,L|112:112,2,40
32,176,194591,1,4,0:0:0:0:
280,152,195060,6,0,L|288:64,1,80,4|0,0:0|0:0,0:0:0:0:
364,124,195528,2,0,L|388:36,1,80
460,76,195997,2,0,P|492:116|492:196,2,120,0|8|8,0:0|0:0|0:0,0:0:0:0:
384,48,196935,5,0,0:0:0:0:
256,64,197403,1,0,0:0:0:0:
128,48,197872,1,0,0:0:0:0:
256,64,198341,1,4,0:0:0:0:
232,232,198810,6,0,L|224:320,1,80,4|0,0:0|0:0,0:0:0:0:
148,260,199278,2,0,L|124:348,1,80,8|0,0:0|0:0,0:0:0:0:
52,308,199747,2,0,P|20:268|20:188,2,120,0|8|8,0:0|0:0|0:0,0:0:0:0:
128,336,200685,5,4,0:0:0:0:
256,320,201153,1,4,0:0:0:0:
384,336,201622,1,4,0:0:0:0:
256,320,202091,1,4,0:0:0:0:
156,240,202560,6,0,B|124:196|144:152|144:152|80:120,1,160,0|8,0:0|0:0,0:0:0:0:
40,56,203263,1,2,0:0:0:0:
116,32,203497,2,0,L|200:72,1,80,0|2,0:0|0:0,0:0:0:0:
256,112,203966,2,8,L|304:208,1,80,8|10,0:0|0:0,0:0:0:0:
356,240,204435,6,0,B|388:196|368:152|368:152|432:120,1,160,0|8,0:0|0:0,0:0:0:0:
472,56,205138,1,2,0:0:0:0:
396,32,205372,2,0,L|312:72,1,80,0|2,0:0|0:0,0:0:0:0:
256,112,205841,2,0,L|208:208,1,80,8|10,0:0|0:0,0:0:0:0:
152,232,206310,6,0,B|104:272|104:272|96:332|156:360,1,160,0|8,0:0|0:0,0:0:0:0:
360,232,207247,2,0,B|408:272|408:272|416:332|356:360,1,160,0|8,0:0|0:0,0:0:0:0:
284,340,207950,1,10,0:0:0:0:
224,280,208185,6,0,L|204:196,1,80,0|2,0:0|0:0,0:0:0:0:
280,176,208653,2,0,L|296:88,1,80,8|2,0:0|0:0,0:0:0:0:
296,16,209122,2,0,L|348:24,2,40,0|0|2,0:0|0:0|0:0,0:0:0:0:
216,16,209591,2,0,L|164:24,2,40,8|0|2,0:0|0:0|0:0,0:0:0:0:
256,84,210060,1,4,2:0:0:0:
