osu file format v12

[General]
AudioFilename: 06. Zero Gravity.mp3
AudioLeadIn: 0
PreviewTime: 71310
Countdown: 0
SampleSet: Normal
StackLeniency: 0.7
Mode: 0
LetterboxInBreaks: 0
EpilepsyWarning: 1

[Editor]
DistanceSpacing: 0.8
BeatDivisor: 4
GridSize: 4

[Metadata]
Title:Zero Gravity
TitleUnicode:Zero Gravity
Artist:Kerli
ArtistUnicode:Kerli
Creator:Lehon
Version:Insane
Source:
Tags:
BeatmapID:206180
BeatmapSetID:72081

[Difficulty]
HPDrainRate:7
CircleSize:3
OverallDifficulty:7
ApproachRate:7
SliderMultiplier:2
SliderTickRate:1

[Events]
//Background and Video events
0,0,"Konachan1.jpg",0,0
//Break Periods
2,45260,59160
2,120260,134160
2,150260,160410
//Storyboard Layer 0 (Background)
//Storyboard Layer 1 (Fail)
//Storyboard Layer 2 (Pass)
//Storyboard Layer 3 (Foreground)
//Storyboard Sound Samples
//Background Colour Transformations
3,100,163,162,255

[TimingPoints]
60,468.75,4,2,0,75,1,0
7560,-133.333333333333,4,2,0,75,0,0
15050,-100,4,2,0,75,0,0
60060,-133.333333333333,4,2,0,75,0,0
67560,-133.333333333333,4,1,0,50,0,0
74122,-66.6666666666667,4,1,0,50,0,0
75060,-100,4,1,0,50,0,1
90060,-100,4,2,0,75,0,0
135060,-133.333333333333,4,2,0,75,0,0
142560,-133.333333333333,4,1,0,50,0,0
165060,-100,4,1,0,50,0,1
180060,-100,4,2,0,75,0,0
187560,-100,4,1,0,75,0,0

[Colours]
Combo1 : 43,43,255
Combo2 : 55,155,255
Combo3 : 159,207,255
Combo4 : 128,128,255

[HitObjects]
128,288,7560,2,0,P|184:328|264:304,1,150.000005722046,2|0,0:0|0:0,0:0:0:0:
288,256,8263,2,0,P|344:248|416:312,2,150.000005722046,2|2|0,0:0|0:0|0:0,0:0:0:0:
160,48,10606,1,0,0:0:0:0:
112,168,11310,5,2,0:0:0:0:
272,256,12013,2,0,P|328:264|424:224,2,150.000005722046,2|2|0,0:0|0:0|0:0,0:0:0:0:
320,80,14356,1,0,0:0:0:0:
448,288,15060,6,0,P|392:320|304:312,1,150
308,314,15528,1,8,0:0:0:0:
232,336,15763,1,0,0:0:0:0:
184,272,15997,1,0,0:0:0:0:
144,256,16114,1,0,0:0:0:0:
104,256,16231,1,0,0:0:0:0:
64,272,16349,1,8,0:0:0:0:
40,304,16466,1,0,0:0:0:0:
40,120,16700,1,8,0:0:0:0:
80,48,16935,6,0,P|128:16|216:48,1,150
224,80,17403,1,8,0:0:0:0:
288,32,17638,1,0,0:0:0:0:
368,40,17872,2,0,P|440:40|472:88,1,100
480,104,18224,1,8,0:0:0:0:
464,144,18341,1,0,0:0:0:0:
304,168,18575,1,8,0:0:0:0:
224,336,18810,2,0,B|176:296|128:320|128:320|64:280,2,150
320,320,19747,1,0,0:0:0:0:
400,336,19981,1,0,0:0:0:0:
440,312,20099,1,8,0:0:0:0:
440,264,20216,1,0,0:0:0:0:
392,200,20450,1,8,0:0:0:0:
320,240,20685,6,0,P|248:272|168:240,1,150
160,208,21153,1,8,0:0:0:0:
72,296,21388,2,0,L|112:336,2,50
40,224,21739,2,0,L|16:288,2,50,0|0|8,0:0|0:0|0:0,0:0:0:0:
64,176,22091,1,0,0:0:0:0:
56,56,22325,1,8,0:0:0:0:
320,208,22560,6,0,P|376:168|448:192,2,150
392,256,23497,1,0,0:0:0:0:
440,320,23731,1,0,0:0:0:0:
400,336,23849,1,8,0:0:0:0:
360,328,23966,1,0,0:0:0:0:
224,264,24200,1,8,0:0:0:0:
152,304,24435,6,0,P|72:344|16:296,1,150
16,280,24903,1,8,0:0:0:0:
56,192,25138,2,0,L|24:80,2,100
96,200,25724,1,8,0:0:0:0:
128,176,25841,1,0,0:0:0:0:
96,32,26075,1,8,0:0:0:0:
240,96,26310,1,0,0:0:0:0:
280,248,26544,1,0,0:0:0:0:
448,304,26778,5,8,0:0:0:0:
368,328,27013,2,0,L|256:368,2,100
360,248,27716,2,8,L|472:208,2,100,8|0|0,0:0|0:0|0:0,0:0:0:0:
256,272,28419,1,0,0:0:0:0:
104,192,28653,1,8,0:0:0:0:
72,48,28888,1,0,0:0:0:0:
72,336,29122,1,0,0:0:0:0:
192,176,29356,1,0,0:0:0:0:
192,136,29474,1,8,0:0:0:0:
208,96,29591,1,0,0:0:0:0:
240,72,29708,1,0,0:0:0:0:
280,64,29825,1,8,0:0:0:0:
320,72,29942,1,0,0:0:0:0:
352,96,30060,5,4,2:0:0:0:
440,136,30294,1,0,0:0:0:0:
360,188,30528,1,8,0:0:0:0:
400,272,30763,1,0,0:0:0:0:
408,312,30880,2,0,L|472:320,2,50
376,336,31231,2,0,L|304:344,2,50,0|8|0,0:0|0:0|0:0,0:0:0:0:
176,352,31700,1,8,0:0:0:0:
256,216,31935,5,0,0:0:0:0:
400,144,32169,1,0,0:0:0:0:
256,52,32403,1,8,0:0:0:0:
112,20,32638,1,0,0:0:0:0:
72,32,32755,1,0,0:0:0:0:
40,56,32872,1,0,0:0:0:0:
24,92,32989,1,0,0:0:0:0:
28,132,33106,1,0,0:0:0:0:
44,168,33224,1,8,0:0:0:0:
76,192,33341,1,0,0:0:0:0:
96,304,33575,1,8,0:0:0:0:
224,224,33810,5,0,0:0:0:0:
312,336,34044,1,0,0:0:0:0:
312,96,34278,1,8,0:0:0:0:
408,208,34513,5,0,0:0:0:0:
448,224,34630,1,0,0:0:0:0:
464,256,34747,1,0,0:0:0:0:
456,296,34864,1,0,0:0:0:0:
424,320,34981,1,0,0:0:0:0:
384,320,35099,1,8,0:0:0:0:
352,296,35216,1,0,0:0:0:0:
256,192,35450,1,8,0:0:0:0:
104,80,35685,6,0,B|156:48|156:48|212:64,1,100
404,76,36153,2,0,B|352:108|352:108|296:92,1,100,8|0,0:0|0:0,0:0:0:0:
156,268,36622,1,0,0:0:0:0:
144,232,36739,1,0,0:0:0:0:
132,196,36856,1,0,0:0:0:0:
380,196,37091,1,8,0:0:0:0:
368,232,37208,1,0,0:0:0:0:
356,268,37325,1,0,0:0:0:0:
256,156,37560,5,0,0:0:0:0:
112,92,37794,2,0,P|144:48|192:28,1,100,0|8,0:0|0:0,0:0:0:0:
384,72,38263,2,0,L|352:16,2,50
424,80,38614,1,0,0:0:0:0:
448,112,38731,1,0,0:0:0:0:
448,152,38849,1,8,0:0:0:0:
424,184,38966,1,0,0:0:0:0:
336,144,39200,1,8,0:0:0:0:
352,280,39435,5,0,0:0:0:0:
232,360,39669,1,0,0:0:0:0:
104,320,39903,1,8,0:0:0:0:
104,184,40138,2,0,L|48:168,1,50
72,128,40372,2,0,L|32:96,2,50
104,104,40724,1,8,0:0:0:0:
144,104,40841,1,0,0:0:0:0:
208,168,41075,1,8,0:0:0:0:
432,344,41310,6,0,L|320:336,1,100,0|0,0:0|0:0,0:0:0:0:
80,344,41778,2,0,L|192:336,1,100,8|0,0:0|0:0,0:0:0:0:
256,240,42247,2,0,L|256:128,2,100,0|0|8,2:0|0:0|0:0,0:0:0:0:
256,344,42950,1,0,0:0:0:0:
256,192,43185,12,4,45060,0:0:0:0:
96,272,60060,6,0,P|176:320|256:288,1,150.000005722046,0|8,0:0|0:0,0:0:0:0:
280,272,60763,2,0,P|336:224|432:256,2,150.000005722046
192,192,62169,2,0,P|144:136|48:160,2,150.000005722046
232,232,63341,1,8,0:0:0:0:
288,216,63575,1,0,0:0:0:0:
296,160,63810,5,0,0:0:0:0:
400,104,64278,1,8,0:0:0:0:
456,208,64747,1,0,0:0:0:0:
352,272,65216,1,8,0:0:0:0:
232,248,65685,6,0,L|136:264,1,75.0000028610231
120,216,66153,2,0,L|32:200,1,75.0000028610231,8|0,0:0|0:0,0:0:0:0:
40,144,66622,2,0,P|80:64|152:48,1,150.000005722046,0|8,0:0|0:0,0:0:0:0:
256,56,67560,5,0,0:0:0:0:
176,144,68028,1,8,0:0:0:0:
280,200,68497,2,0,P|360:184|424:240,1,150.000005722046,0|8,0:0|0:0,0:0:0:0:
432,288,69200,2,0,P|384:288|352:248,2,75.0000028610231
480,240,69903,1,8,0:0:0:0:
408,104,70372,1,0,0:0:0:0:
248,160,70841,1,8,0:0:0:0:
272,320,71310,5,0,0:0:0:0:
216,352,71544,1,0,0:0:0:0:
160,344,71778,1,8,0:0:0:0:
120,296,72013,1,0,0:0:0:0:
32,176,72247,5,0,0:0:0:0:
32,120,72481,1,0,0:0:0:0:
64,72,72716,1,8,0:0:0:0:
120,64,72950,1,0,0:0:0:0:
184,184,73185,5,0,0:0:0:0:
216,184,73302,1,0,0:0:0:0:
248,184,73419,1,0,0:0:0:0:
280,184,73536,1,0,0:0:0:0:
312,184,73653,2,0,L|336:160,7,18.7500007152558
352,184,74122,2,0,L|368:208,15,18.7500007152558
368,208,74591,1,8,0:0:0:0:
256,280,74825,1,0,0:0:0:0:
392,112,75060,6,0,L|280:112,1,100,8|0,0:0|0:0,0:0:0:0:
264,184,75528,2,0,L|160:184,2,100,8|0|8,0:0|0:0|0:0,0:0:0:0:
328,232,76231,1,0,0:0:0:0:
328,272,76349,1,8,0:0:0:0:
352,304,76466,1,8,0:0:0:0:
416,240,76700,1,8,0:0:0:0:
80,256,76935,5,8,0:0:0:0:
48,184,77169,2,0,P|24:136|48:72,1,100,0|8,0:0|0:0,0:0:0:0:
104,128,77638,2,0,P|136:160|208:160,1,100,0|8,0:0|0:0,0:0:0:0:
176,88,78106,2,0,L|224:48,2,50,0|8|8,0:0|0:0|0:0,0:0:0:0:
108,48,78575,1,8,0:0:0:0:
432,232,78810,5,8,0:0:0:0:
440,152,79044,1,0,0:0:0:0:
360,136,79278,1,8,0:0:0:0:
328,208,79513,1,0,0:0:0:0:
272,264,79747,1,8,0:0:0:0:
240,336,79981,1,0,0:0:0:0:
160,328,80216,1,8,0:0:0:0:
144,248,80450,1,8,0:0:0:0:
216,208,80685,6,2,P|216:128|104:96,2,200,10|2|10,0:0|0:0|0:0,0:0:0:0:
144,168,81856,2,0,L|72:176,2,50,0|8|10,0:0|0:0|0:0,0:0:0:0:
56,240,82325,1,10,0:0:0:0:
408,176,82560,6,0,L|432:56,1,100,8|0,0:0|0:0,0:0:0:0:
336,136,83028,2,0,L|312:256,2,100,8|0|8,0:0|0:0|0:0,0:0:0:0:
392,264,83731,1,0,0:0:0:0:
424,304,83849,1,8,0:0:0:0:
408,344,83966,1,8,0:0:0:0:
324,356,84200,1,8,0:0:0:0:
264,296,84435,6,0,P|216:264|160:280,1,100,8|0,0:0|0:0,0:0:0:0:
200,344,84903,2,0,P|136:344|110:322,1,100,8|0,0:0|0:0,0:0:0:0:
32,320,85372,1,8,0:0:0:0:
8,244,85606,1,0,0:0:0:0:
32,204,85724,1,8,0:0:0:0:
72,196,85841,1,8,0:0:0:0:
136,248,86075,1,8,0:0:0:0:
424,136,86310,6,0,P|352:128|329:114,1,100,8|0,0:0|0:0,0:0:0:0:
88,136,86778,2,0,P|160:128|182:114,1,100,8|0,0:0|0:0,0:0:0:0:
390,56,87247,2,8,P|360:40|296:40,1,100,8|0,0:0|0:0,0:0:0:0:
121,56,87716,2,8,P|152:40|216:40,1,100,8|8,0:0|0:0,0:0:0:0:
256,192,88185,12,0,89591,0:0:0:0:
256,192,90060,5,0,0:0:0:0:
256,336,91466,5,0,0:0:0:0:
96,312,91935,1,0,0:0:0:0:
256,336,92403,1,0,0:0:0:0:
416,320,92872,1,0,0:0:0:0:
256,216,93224,5,8,0:0:0:0:
256,216,93341,1,0,0:0:0:0:
256,132,93575,1,8,0:0:0:0:
304,64,93810,2,0,P|368:80|408:160,1,150
376,176,94278,2,0,P|360:224|392:288,2,100,8|0|0,0:0|0:0|0:0,0:0:0:0:
440,224,94981,1,0,0:0:0:0:
472,248,95099,1,8,0:0:0:0:
472,288,95216,1,0,0:0:0:0:
432,360,95450,1,8,0:0:0:0:
288,328,95685,6,0,P|216:304|176:312,1,100
176,144,96153,2,0,P|184:208|136:240,1,100,8|0,0:0|0:0,0:0:0:0:
240,80,96622,2,0,P|312:104|352:96,1,100
334,101,96974,1,8,0:0:0:0:
334,101,97091,1,0,0:0:0:0:
392,48,97325,1,8,0:0:0:0:
440,112,97560,6,0,P|464:168|432:256,1,150
400,264,98028,1,8,0:0:0:0:
432,336,98263,1,0,0:0:0:0:
352,344,98497,2,0,L|288:360,2,50
336,304,98849,1,8,0:0:0:0:
296,288,98966,2,0,P|224:312|192:296,1,100,0|8,0:0|0:0,0:0:0:0:
128,352,99435,6,0,P|56:328|32:256,1,150
56,232,99903,1,8,0:0:0:0:
48,152,100138,2,0,L|32:48,2,100
88,160,100724,1,8,0:0:0:0:
120,144,100841,1,0,0:0:0:0:
168,80,101075,1,8,0:0:0:0:
400,312,101310,6,0,P|336:328|272:288,1,100
280,240,101778,2,0,P|249:230|185:246,2,100,8|0|0,0:0|0:0|0:0,0:0:0:0:
360,232,102481,1,0,0:0:0:0:
392,216,102599,1,8,0:0:0:0:
408,176,102716,1,0,0:0:0:0:
328,160,102950,1,8,0:0:0:0:
376,96,103185,5,0,0:0:0:0:
296,80,103419,1,0,0:0:0:0:
96,96,103653,1,8,0:0:0:0:
208,144,103888,1,0,0:0:0:0:
408,344,104122,5,0,0:0:0:0:
232,256,104356,1,0,0:0:0:0:
48,344,104591,1,8,0:0:0:0:
232,256,104825,1,0,0:0:0:0:
328,152,105060,5,4,0:0:0:0:
312,120,105177,1,0,0:0:0:0:
312,80,105294,1,0,0:0:0:0:
336,48,105411,1,0,0:0:0:0:
376,40,105528,1,8,0:0:0:0:
416,56,105645,1,0,0:0:0:0:
432,96,105763,1,0,0:0:0:0:
424,136,105880,1,0,0:0:0:0:
432,176,105997,2,0,L|488:208,2,50
416,336,106466,1,8,0:0:0:0:
304,264,106700,1,8,0:0:0:0:
176,320,106935,6,0,L|104:328,1,50
96,304,107169,1,0,0:0:0:0:
72,272,107286,2,0,L|8:272,2,50,0|8|0,0:0|0:0|0:0,0:0:0:0:
96,240,107638,1,0,0:0:0:0:
96,200,107755,2,0,L|160:192,2,50
56,200,108106,1,0,0:0:0:0:
128,64,108341,1,8,0:0:0:0:
256,168,108575,1,8,0:0:0:0:
408,112,108810,6,0,L|408:48,1,50,0|0,0:0|0:0,0:0:0:0:
448,56,109044,2,0,L|512:48,1,50
496,88,109278,2,0,L|488:152,1,50,8|0,0:0|0:0,0:0:0:0:
456,160,109513,1,0,0:0:0:0:
416,176,109630,1,0,0:0:0:0:
400,216,109747,1,0,0:0:0:0:
400,256,109864,1,0,0:0:0:0:
424,288,109981,2,0,P|488:280|520:240,2,100,0|8|8,0:0|0:0|0:0,0:0:0:0:
368,352,110685,5,0,0:0:0:0:
336,352,110802,1,0,0:0:0:0:
304,352,110919,1,0,0:0:0:0:
104,344,111153,1,8,0:0:0:0:
256,80,111388,1,0,0:0:0:0:
432,208,111622,5,0,0:0:0:0:
400,208,111739,1,0,0:0:0:0:
368,208,111856,1,0,0:0:0:0:
88,160,112091,1,8,0:0:0:0:
120,160,112208,1,0,0:0:0:0:
152,160,112325,1,0,0:0:0:0:
184,160,112442,1,0,0:0:0:0:
216,160,112560,6,0,P|264:192|280:240,2,100,0|0|8,0:0|0:0|0:0,0:0:0:0:
200,240,113263,1,0,0:0:0:0:
176,272,113380,1,0,0:0:0:0:
184,312,113497,1,0,0:0:0:0:
224,328,113614,1,0,0:0:0:0:
264,312,113731,1,0,0:0:0:0:
440,280,113966,1,8,0:0:0:0:
424,112,114200,1,8,0:0:0:0:
264,64,114435,6,0,B|244:30|196:62|172:30,1,100
128,24,114786,1,0,0:0:0:0:
96,48,114903,1,8,0:0:0:0:
80,88,115020,1,0,0:0:0:0:
88,128,115138,1,0,0:0:0:0:
112,160,115255,1,0,0:0:0:0:
152,168,115372,2,0,L|192:112,2,50
304,160,115841,1,8,0:0:0:0:
368,296,116075,1,8,0:0:0:0:
224,336,116310,5,0,0:0:0:0:
208,336,116427,1,0,0:0:0:0:
192,336,116544,1,0,0:0:0:0:
176,336,116661,1,0,0:0:0:0:
160,336,116778,1,8,0:0:0:0:
144,336,116895,1,0,0:0:0:0:
128,336,117013,1,0,0:0:0:0:
112,336,117130,1,0,0:0:0:0:
96,336,117247,1,0,0:0:0:0:
80,336,117364,1,0,0:0:0:0:
64,336,117481,1,0,0:0:0:0:
48,336,117599,1,8,0:0:0:0:
32,336,117716,1,0,0:0:0:0:
56,192,117950,1,8,0:0:0:0:
216,240,118185,5,0,0:0:0:0:
328,272,118419,1,0,0:0:0:0:
416,72,118653,1,8,0:0:0:0:
272,120,118888,1,0,0:0:0:0:
448,304,119122,5,0,0:0:0:0:
440,272,119239,1,0,0:0:0:0:
432,240,119356,1,0,0:0:0:0:
128,72,119591,1,8,0:0:0:0:
120,104,119708,1,0,0:0:0:0:
112,136,119825,1,0,0:0:0:0:
256,192,120060,5,4,0:0:0:0:
416,112,135060,6,0,P|336:64|256:96,1,150.000005722046,0|8,0:0|0:0,0:0:0:0:
232,112,135763,2,0,P|176:160|80:128,2,150.000005722046
320,192,137169,2,0,P|368:248|464:224,2,150.000005722046
280,152,138341,1,8,0:0:0:0:
224,168,138575,1,0,0:0:0:0:
216,224,138810,5,0,0:0:0:0:
112,280,139278,1,8,0:0:0:0:
56,176,139747,1,0,0:0:0:0:
160,112,140216,1,8,0:0:0:0:
280,136,140685,6,0,L|376:120,1,75.0000028610231
392,168,141153,2,0,L|480:184,1,75.0000028610231,8|0,0:0|0:0,0:0:0:0:
472,240,141622,2,0,P|432:320|360:336,1,150.000005722046,0|8,0:0|0:0,0:0:0:0:
312,384,142325,1,0,0:0:0:0:
256,328,142560,5,0,0:0:0:0:
336,240,143028,1,8,0:0:0:0:
232,184,143497,2,0,P|152:200|88:144,1,150.000005722046,0|8,0:0|0:0,0:0:0:0:
80,96,144200,2,0,P|128:96|160:136,2,75.0000028610231
32,144,144903,1,8,0:0:0:0:
104,280,145372,1,0,0:0:0:0:
264,224,145841,1,8,0:0:0:0:
240,64,146310,5,0,0:0:0:0:
296,32,146544,1,0,0:0:0:0:
352,40,146778,1,8,0:0:0:0:
392,88,147013,1,0,0:0:0:0:
480,208,147247,5,0,0:0:0:0:
480,264,147481,1,0,0:0:0:0:
448,312,147716,1,8,0:0:0:0:
392,320,147950,1,0,0:0:0:0:
184,296,148185,5,0,0:0:0:0:
256,104,148419,1,0,1:0:0:0:
312,296,148653,1,8,0:0:0:0:
152,176,148888,1,0,0:0:0:0:
352,176,149122,1,0,0:0:0:0:
256,16,149591,5,2,2:0:0:0:
256,104,149826,1,0,2:0:0:0:
256,192,150060,1,4,0:0:0:0:
320,312,161310,5,8,0:0:0:0:
192,312,161544,1,0,0:0:0:0:
368,208,161779,1,8,0:0:0:0:
136,208,162013,1,0,0:0:0:0:
88,312,162247,5,8,0:0:0:0:
256,232,162481,1,0,0:0:0:0:
408,320,162716,1,8,0:0:0:0:
256,352,162950,1,0,0:0:0:0:
152,88,163185,5,8,0:0:0:0:
184,88,163302,1,0,0:0:0:0:
224,88,163419,1,8,0:0:0:0:
400,192,163653,1,8,0:0:0:0:
368,192,163770,1,0,0:0:0:0:
336,192,163888,1,8,0:0:0:0:
160,192,164122,5,8,0:0:0:0:
128,192,164239,1,8,0:0:0:0:
96,208,164356,1,8,0:0:0:0:
80,240,164474,1,8,0:0:0:0:
80,272,164591,2,8,L|48:272,7,18.7500007152558,8|8|8|8|8|8|8|8,0:0|0:0|0:0|0:0|0:0|0:0|0:0|0:0,0:0:0:0:
120,272,165060,38,8,L|232:272,1,100,12|0,0:0|0:0,0:0:0:0:
252,200,165528,2,0,L|356:200,2,100,8|0|8,0:0|0:0|0:0,0:0:0:0:
184,152,166231,1,0,0:0:0:0:
184,112,166349,1,8,0:0:0:0:
160,80,166466,1,8,0:0:0:0:
96,144,166700,1,8,0:0:0:0:
432,124,166935,5,8,0:0:0:0:
464,200,167169,2,0,P|488:248|464:312,1,100,0|8,0:0|0:0,0:0:0:0:
408,256,167638,2,0,P|368:216|304:224,1,100,0|8,0:0|0:0,0:0:0:0:
336,296,168106,2,0,L|288:336,2,50,0|8|8,0:0|0:0|0:0,0:0:0:0:
404,340,168575,1,8,0:0:0:0:
80,152,168810,5,12,0:0:0:0:
72,232,169044,1,0,0:0:0:0:
152,248,169278,1,8,0:0:0:0:
184,176,169513,1,0,0:0:0:0:
240,120,169747,1,8,0:0:0:0:
272,48,169981,1,0,0:0:0:0:
352,56,170216,1,8,0:0:0:0:
368,136,170450,1,8,0:0:0:0:
296,176,170685,6,10,P|296:256|408:288,2,200
368,216,171856,2,0,L|440:208,2,50,0|8|10,0:0|0:0|0:0,0:0:0:0:
456,140,172325,1,10,0:0:0:0:
104,208,172560,6,0,L|80:328,1,100,12|0,0:0|0:0,0:0:0:0:
176,248,173028,2,0,L|200:128,2,100,8|0|8,0:0|0:0|0:0,0:0:0:0:
124,120,173731,1,0,0:0:0:0:
92,88,173849,1,8,0:0:0:0:
108,40,173966,1,8,0:0:0:0:
188,32,174200,1,8,0:0:0:0:
248,88,174435,6,0,P|296:120|352:104,1,100,8|0,0:0|0:0,0:0:0:0:
312,40,174903,2,0,P|376:40|401:61,1,100,8|0,0:0|0:0,0:0:0:0:
480,64,175372,1,8,0:0:0:0:
504,140,175606,1,0,0:0:0:0:
480,180,175724,1,8,0:0:0:0:
440,188,175841,1,8,0:0:0:0:
376,136,176075,1,8,0:0:0:0:
88,248,176310,6,0,P|160:256|182:269,1,100,8|0,0:0|0:0,0:0:0:0:
424,248,176778,2,0,P|352:256|329:269,1,100,8|0,0:0|0:0,0:0:0:0:
122,328,177247,2,8,P|152:344|216:344,1,100,8|0,0:0|0:0,0:0:0:0:
391,328,177716,2,8,P|360:344|296:344,1,100,8|8,0:0|0:0,0:0:0:0:
256,192,178185,12,0,179591,0:0:0:0:
200,352,180060,6,0,L|312:352,1,100,0|0,0:0|0:0,0:0:0:0:
304,272,180528,2,0,L|192:272,1,100,0|0,0:0|0:0,0:0:0:0:
208,160,180997,2,0,L|320:160,1,100,0|0,0:0|0:0,0:0:0:0:
304,24,181466,2,0,L|192:24,1,100,0|0,0:0|0:0,0:0:0:0:
152,88,181935,5,0,0:0:0:0:
120,160,182169,1,0,0:0:0:0:
256,280,182403,1,0,0:0:0:0:
256,200,182638,1,0,0:0:0:0:
392,160,182872,1,0,0:0:0:0:
360,88,183106,1,0,0:0:0:0:
256,16,183341,1,0,0:0:0:0:
256,96,183575,1,0,0:0:0:0:
128,280,183810,5,0,0:0:0:0:
256,368,184044,1,0,0:0:0:0:
376,280,184278,1,0,0:0:0:0:
256,232,184513,1,0,0:0:0:0:
176,352,184747,5,0,0:0:0:0:
336,352,184981,1,0,0:0:0:0:
257,144,185216,1,0,0:0:0:0:
256,232,185450,1,0,0:0:0:0:
72,56,185685,6,0,L|184:56,1,100,0|0,0:0|0:0,0:0:0:0:
440,328,186153,2,0,L|328:328,1,100,0|0,0:0|0:0,0:0:0:0:
160,192,186622,1,0,0:0:0:0:
160,192,186739,1,0,0:0:0:0:
160,192,186856,1,0,0:0:0:0:
336,192,187091,1,0,0:0:0:0:
336,192,187208,1,0,0:0:0:0:
336,192,187325,1,0,0:0:0:0:
256,344,187560,6,0,L|312:344,2,50,0|0|0,0:0|0:0|0:0,0:0:0:0:
256,304,187911,1,0,0:0:0:0:
256,264,188028,2,0,L|192:264,2,50,0|0|0,0:0|0:0|0:0,0:0:0:0:
256,224,188380,1,0,0:0:0:0:
256,184,188497,2,0,L|320:184,2,50,0|0|0,0:0|0:0|0:0,0:0:0:0:
176,48,188966,1,8,0:0:0:0:
336,48,189200,1,8,0:0:0:0:
280,168,189435,6,0,L|328:128,1,50
232,208,189669,2,0,L|184:248,1,50
232,168,189903,2,0,L|184:128,1,50
280,208,190137,2,0,L|328:248,1,50
296,272,190372,1,0,0:0:0:0:
256,280,190489,1,0,0:0:0:0:
216,272,190606,1,0,0:0:0:0:
104,200,190841,1,8,0:0:0:0:
408,200,191075,1,8,0:0:0:0:
328,88,191310,6,0,L|368:144,2,50
288,88,191661,1,0,0:0:0:0:
248,88,191778,2,0,L|208:32,2,50
208,88,192130,1,0,0:0:0:0:
168,88,192247,1,0,0:0:0:0:
128,88,192364,2,0,L|88:144,2,50
88,88,192716,5,8,0:0:0:0:
256,264,192950,1,8,0:0:0:0:
424,88,193185,1,4,0:0:0:0:
128,304,193419,5,0,0:0:0:0:
256,128,193653,1,4,0:0:0:0:
384,304,193888,1,0,0:0:0:0:
168,192,194122,1,4,0:0:0:0:
168,192,194239,1,0,0:0:0:0:
168,192,194356,1,0,0:0:0:0:
336,192,194591,1,0,0:0:0:0:
336,192,194708,1,0,0:0:0:0:
336,192,194825,1,0,2:0:0:0:
224,56,195060,6,0,L|160:56,1,50
288,56,195294,2,0,L|352:56,1,50
224,104,195528,2,0,L|160:104,1,50
288,104,195762,2,0,L|352:104,1,50
224,152,195997,2,0,L|160:152,1,50
288,152,196231,2,0,L|352:152,1,50
368,152,196466,1,8,0:0:0:0:
144,152,196700,1,8,0:0:0:0:
168,272,196935,6,0,L|232:272,1,50
160,336,197169,2,0,L|96:336,1,50
224,336,197403,2,0,L|288:336,1,50
336,272,197638,2,0,L|264:272,1,50
336,336,197872,2,0,L|400:336,2,50
160,192,198341,1,8,0:0:0:0:
344,192,198575,1,8,0:0:0:0:
128,48,198810,5,0,0:0:0:0:
160,48,198927,1,0,0:0:0:0:
192,48,199044,1,0,0:0:0:0:
224,48,199161,1,0,0:0:0:0:
256,48,199278,1,0,0:0:0:0:
288,48,199395,1,0,0:0:0:0:
320,48,199513,1,0,0:0:0:0:
352,48,199630,2,0,L|384:104,2,50,0|0|0,0:0|0:0|0:0,0:0:0:0:
384,48,199981,2,0,L|352:-8,2,50,0|0|8,0:0|0:0|0:0,0:0:0:0:
256,136,200450,5,8,0:0:0:0:
312,320,200685,1,4,0:0:0:0:
160,216,200919,1,0,0:0:0:0:
344,216,201153,1,4,0:0:0:0:
200,320,201388,1,0,0:0:0:0:
408,296,201622,2,0,L|464:296,2,50,4|0|0,0:0|0:0|0:0,0:0:0:0:
104,296,202091,2,0,L|48:296,2,50,4|0|0,0:0|0:0|0:0,0:0:0:0:
224,208,202560,6,0,L|168:208,1,50
288,208,202794,2,0,L|344:208,1,50,2|0,0:0|0:0,0:0:0:0:
336,144,203028,2,0,L|264:144,1,50
176,144,203263,2,0,L|256:144,1,50,2|0,0:0|0:0,0:0:0:0:
224,80,203497,2,0,L|288:80,2,50,0|0|2,0:0|0:0|0:0,0:0:0:0:
160,328,203966,1,8,0:0:0:0:
344,328,204200,1,10,0:0:0:0:
160,210,204435,6,0,L|160:154,1,50
224,98,204669,2,0,L|224:162,1,50,2|0,0:0|0:0,0:0:0:0:
224,210,204903,2,0,L|224:274,2,50,0|0|2,0:0|0:0|0:0,0:0:0:0:
288,210,205255,2,0,L|288:138,1,50
352,160,205489,2,0,L|352:210,2,50,0|2|0,0:0|0:0|0:0,0:0:0:0:
352,122,205841,1,8,0:0:0:0:
440,338,206075,1,10,0:0:0:0:
184,344,206310,5,0,0:0:0:0:
176,304,206427,1,0,0:0:0:0:
184,264,206544,1,2,0:0:0:0:
216,232,206661,1,0,0:0:0:0:
256,216,206778,1,0,0:0:0:0:
296,232,206895,1,0,0:0:0:0:
328,264,207012,1,2,0:0:0:0:
336,304,207129,1,0,0:0:0:0:
328,344,207246,1,0,0:0:0:0:
280,352,207364,2,0,L|224:352,2,50,0|2|0,0:0|0:0|0:0,0:0:0:0:
256,296,207716,1,8,1:0:0:0:
256,80,207950,1,10,0:0:0:0:
64,64,208185,5,4,0:0:0:0:
160,192,208419,1,2,0:0:0:0:
352,192,208653,1,4,0:0:0:0:
448,64,208887,1,2,0:0:0:0:
176,96,209122,1,4,0:0:0:0:
176,96,209239,1,0,0:0:0:0:
176,96,209356,1,2,0:0:0:0:
336,96,209591,1,4,0:0:0:0:
336,96,209708,1,0,0:0:0:0:
336,96,209825,1,2,0:0:0:0:
256,296,210060,5,0,2:0:0:0:
