osu file format v14

[General]
AudioFilename: Keri Hilson - I Like.mp3
AudioLeadIn: 0
PreviewTime: 15490
Countdown: 1
SampleSet: Soft
StackLeniency: 0.5
Mode: 0
LetterboxInBreaks: 0
WidescreenStoryboard: 0

[Editor]
DistanceSpacing: 0.8
BeatDivisor: 1
GridSize: 4
TimelineZoom: 1

[Metadata]
Title:I Like
TitleUnicode:I Like
Artist:Keri Hilson
ArtistUnicode:Keri Hilson
Creator:Bathory Witch
Version:Easy
Source:Zweiohrküken
Tags:r&b dance EDM electronic Krfawy OST official soundtrack In a Perfect World... (I Like Edition)
BeatmapID:665576
BeatmapSetID:296432

[Difficulty]
HPDrainRate:2
CircleSize:2.5
OverallDifficulty:3
ApproachRate:3
SliderMultiplier:1.2
SliderTickRate:1

[Events]
//Background and Video events
0,0,"I Like Being Happy With Someone I Love.jpg",0,0
//Break Periods
//Storyboard Layer 0 (Background)
//Storyboard Layer 1 (Fail)
//Storyboard Layer 2 (Pass)
//Storyboard Layer 3 (Foreground)
//Storyboard Sound Samples

[TimingPoints]
250,480,4,2,1,42,1,0
46330,-100,4,2,1,52,0,1
61210,-100,4,2,1,52,0,0
61690,-100,4,2,1,52,0,1
76570,-100,4,2,1,52,0,0
77050,-100,4,2,1,52,0,1
84730,-100,4,2,1,42,0,0
115450,-100,4,2,1,52,0,1
130330,-100,4,2,1,52,0,0
130810,-100,4,2,1,52,0,1
145690,-100,4,2,1,52,0,0
146170,-100,4,2,1,52,0,1
153850,-100,4,2,1,42,0,0
173050,-100,4,2,1,52,0,1
187930,-100,4,2,1,52,0,0
188410,-100,4,2,1,52,0,1
203290,-100,4,2,1,52,0,0
203770,-100,4,2,1,52,0,1
215290,-100,4,2,1,52,0,0

[Colours]
Combo1 : 232,83,128
Combo2 : 249,170,123
Combo3 : 249,233,119
SliderTrackOverride : 241,224,211

[HitObjects]
104,73,15610,5,2,1:2:0:0:
80,166,16090,2,0,B|80:281|80:281|159:377,1,240,8|8,1:2|1:2,0:0:0:0:
256,379,17530,2,0,P|308:351|367:345,1,120,0|8,0:0|1:2,0:0:0:0:
424,268,18490,2,0,P|386:221|369:164,1,120,0|8,0:0|1:2,0:0:0:0:
356,68,19450,5,2,1:2:0:0:
264,36,19930,2,0,B|160:35|160:35|135:51|135:51|28:52,1,240,8|8,1:2|1:2,0:0:0:0:
3,144,21370,1,0,0:0:0:0:
28,236,21850,2,0,P|72:336|200:332,1,240,8|8,1:2|1:2,0:0:0:0:
256,269,23290,5,2,1:2:0:0:
322,339,23770,2,0,P|393:356|461:312,1,120,8|0,1:2|0:0,0:0:0:0:
500,269,24730,1,8,1:2:0:0:
444,192,25210,2,0,P|387:178|349:132,1,120,0|8,0:0|1:2,0:0:0:0:
273,74,26170,2,0,P|245:125|191:150,1,120,0|8,0:0|1:2,0:0:0:0:
101,114,27130,5,2,1:2:0:0:
173,51,27610,2,0,B|249:125|249:125|278:132|278:132|351:206,1,240,8|8,1:2|1:2,0:0:0:0:
420,276,29050,1,0,0:0:0:0:
351,344,29530,2,0,P|240:319|215:208,1,240,8|8,1:2|1:2,0:0:0:0:
214,111,30970,5,2,1:2:0:0:
291,54,31450,2,0,P|363:141|314:244,1,240,8|8,1:2|1:2,0:0:0:0:
264,326,32890,2,0,P|315:339|383:307,2,120,0|8|0,0:0|1:2|0:0,0:0:0:0:
315,245,34330,2,0,B|207:298|207:298|73:298,1,240,8|8,1:2|1:2,0:0:0:0:
6,245,35770,1,0,0:0:0:0:
26,151,36250,2,0,P|121:93|206:168,2,240,8|8|8,1:2|1:2|1:2,0:0:0:0:
18,246,38650,5,2,1:2:0:0:
112,262,39130,2,0,B|152:274|152:274|206:257|206:257|231:273|231:273|279:249|339:274,1,240,8|8,1:2|1:2,0:0:0:0:
412,335,40570,1,0,0:0:0:0:
429,241,41050,2,0,P|441:183|429:125,2,120,8|0|8,1:2|0:0|1:2,0:0:0:0:
256,192,42490,12,0,44410,1:0:0:0:
202,138,46330,5,4,1:0:0:0:
256,57,46810,2,0,P|371:50|446:138,1,240,8|8,1:2|1:2,0:0:0:0:
456,233,48250,1,2,0:0:0:0:
368,272,48730,2,0,B|261:271|261:271|236:255|236:255|132:256,1,240,8|8,1:2|1:2,0:0:0:0:
37,242,50170,5,0,1:0:0:0:
101,171,50650,2,0,P|127:86|108:35,1,120,8|0,1:2|0:0,0:0:0:0:
34,101,51610,2,0,B|88:136|140:120|140:120|162:140|162:140|218:133|218:133|264:157,1,240,8|8,1:2|1:2,0:0:0:0:
348,171,53050,2,0,P|401:146|430:94,2,120,0|8|2,1:0|1:2|1:2,0:0:0:0:
255,153,54490,6,0,B|148:151|148:151|123:136|123:136|19:136,1,240,8|8,1:2|1:2,0:0:0:0:
5,231,55930,1,0,0:0:0:0:
64,306,56410,2,0,P|120:323|176:305,1,120,8|0,1:2|1:0,0:0:0:0:
256,251,57370,1,8,1:2:0:0:
324,183,57850,5,2,1:2:0:0:
392,115,58330,2,0,B|284:62|284:62|150:62,1,240,8|8,1:2|1:2,0:0:0:0:
79,106,59770,1,0,0:0:0:0:
18,180,60250,2,0,P|25:292|133:321,1,240,8|8,1:2|1:2,0:0:0:0:
217,273,61690,5,4,1:0:0:0:
256,185,62170,2,0,B|364:132|364:132|498:132,1,240,8|8,1:2|1:2,0:0:0:0:
498,226,63610,1,2,0:0:0:0:
454,311,64090,2,0,P|398:328|342:310,1,120,8|2,1:2|1:2,0:0:0:0:
256,263,65050,1,8,1:2:0:0:
256,167,65530,6,0,P|274:110|257:54,1,120,4|8,1:2|1:2,0:0:0:0:
164,29,66490,1,0,0:0:0:0:
85,84,66970,2,0,B|32:192|32:192|32:326,1,240,8|8,1:2|1:2,0:0:0:0:
111,365,68410,2,0,P|168:356|212:316,1,120,0|8,1:0|1:2,0:0:0:0:
256,230,69370,5,2,1:2:0:0:
256,134,69850,2,0,P|345:201|310:307,1,240,8|8,1:2|1:2,0:0:0:0:
220,341,71290,1,2,0:0:0:0:
129,308,71770,2,0,B|81:211|81:211|57:195|57:195|13:101,1,240,8|8,1:2|1:2,0:0:0:0:
80,31,73210,5,2,1:2:0:0:
142,103,73690,2,0,P|256:133|371:102,1,240,8|8,1:2|1:2,0:0:0:0:
435,31,75130,1,0,0:0:0:0:
476,117,75610,2,0,P|450:202|469:253,1,120,8|0,1:2|1:0,0:0:0:0:
508,310,76570,1,8,1:2:0:0:
412,313,77050,5,4,1:0:0:0:
317,316,77530,2,0,B|253:324|212:288|212:288|184:297|184:297|136:267|136:267|94:269,1,240,8|8,1:2|1:2,0:0:0:0:
9,315,78970,1,2,0:0:0:0:
12,219,79450,2,0,P|38:134|19:83,1,120,8|0,1:2|1:0,0:0:0:0:
56,13,80410,1,8,1:2:0:0:
128,76,80890,5,2,1:2:0:0:
200,139,81370,2,0,B|303:138|303:138|328:123|328:123|436:124,1,240,8|8,1:2|1:2,0:0:0:0:
424,28,82810,2,0,L|284:28,1,120,0|8,0:0|1:2,0:0:0:0:
208,28,83770,2,0,P|182:113|201:164,1,120,0|8,1:0|1:2,0:0:0:0:
256,209,84730,5,2,0:0:0:0:
347,239,85210,2,0,P|256:304|165:239,1,240
165,142,86650,1,2,0:0:0:0:
256,113,87130,2,0,B|375:113|375:113|464:197,1,240
472,291,88570,6,0,L|358:332,1,120,2|0,0:0|0:0,0:0:0:0:
264,348,89530,2,0,P|185:306|162:256,1,120,2|0,0:0|0:0,0:0:0:0:
138,191,90490,1,0,0:0:0:0:
182,105,90970,2,0,B|265:173|265:173|274:201|274:201|353:268,1,240,2|8,0:0|1:2,0:0:0:0:
427,328,92410,5,2,1:2:0:0:
451,235,92890,2,0,B|451:120|451:120|371:23,1,240,8|8,1:2|1:2,0:0:0:0:
275,22,94330,2,0,P|223:50|164:56,1,120,0|8,0:0|1:2,0:0:0:0:
88,116,95290,2,0,P|126:163|143:220,1,120,0|8,0:0|1:2,0:0:0:0:
156,316,96250,5,2,1:2:0:0:
248,348,96730,2,0,B|352:349|352:349|377:333|377:333|483:333,1,240,8|8,1:2|1:2,0:0:0:0:
509,240,98170,1,0,0:0:0:0:
484,148,98650,2,0,P|440:48|312:52,1,240,8|8,1:2|1:2,0:0:0:0:
256,115,100090,5,2,1:2:0:0:
190,45,100570,2,0,P|119:28|51:72,1,120,8|0,1:2|0:0,0:0:0:0:
12,115,101530,1,8,1:2:0:0:
68,192,102010,2,0,P|125:206|163:252,1,120,0|8,0:0|1:2,0:0:0:0:
239,310,102970,2,0,P|267:259|321:234,1,120,0|8,0:0|1:2,0:0:0:0:
411,270,103930,5,2,1:2:0:0:
341,335,104410,2,0,B|265:261|265:261|236:254|236:254|163:180,1,240,8|8,1:2|1:2,0:0:0:0:
92,108,105850,1,0,0:0:0:0:
161,40,106330,2,0,P|272:65|297:176,1,240,8|8,1:2|1:2,0:0:0:0:
298,273,107770,5,2,1:2:0:0:
221,330,108250,2,0,P|149:243|198:140,1,240,8|8,1:2|1:2,0:0:0:0:
248,58,109690,2,0,P|197:45|129:77,2,120,0|8|0,0:0|1:2|0:0,0:0:0:0:
300,138,111130,1,8,1:2:0:0:
352,218,111610,5,2,1:2:0:0:
448,218,112090,2,0,B|448:97|448:97|363:10,2,240,8|8|8,1:2|1:2|1:2,0:0:0:0:
485,306,114490,1,2,1:2:0:0:
401,352,114970,1,8,1:2:0:0:
339,278,115450,5,4,1:0:0:0:
256,327,115930,2,0,P|141:334|66:246,1,240,8|8,1:2|1:2,0:0:0:0:
56,151,117370,1,2,0:0:0:0:
144,112,117850,2,0,B|251:113|251:113|276:129|276:129|380:128,1,240,8|8,1:2|1:2,0:0:0:0:
475,142,119290,5,0,1:0:0:0:
411,213,119770,2,0,P|385:298|404:349,1,120,8|0,1:2|0:0,0:0:0:0:
478,283,120730,2,0,B|424:248|372:264|372:264|350:244|350:244|294:251|294:251|248:227,1,240,8|8,1:2|1:2,0:0:0:0:
164,213,122170,2,0,P|111:238|82:290,2,120,0|8|2,1:0|1:2|1:2,0:0:0:0:
257,231,123610,6,0,B|364:233|364:233|389:248|389:248|493:248,1,240,8|8,1:2|1:2,0:0:0:0:
507,153,125050,1,0,0:0:0:0:
448,78,125530,2,0,P|392:61|336:79,1,120,8|0,1:2|1:0,0:0:0:0:
256,133,126490,1,8,1:2:0:0:
188,201,126970,5,2,1:2:0:0:
120,269,127450,2,0,B|228:322|228:322|362:322,1,240,8|8,1:2|1:2,0:0:0:0:
433,278,128890,1,0,0:0:0:0:
494,204,129370,2,0,P|487:92|379:63,1,240,8|8,1:2|1:2,0:0:0:0:
295,111,130810,5,4,1:0:0:0:
256,199,131290,2,0,B|148:252|148:252|14:252,1,240,8|8,1:2|1:2,0:0:0:0:
14,158,132730,1,2,0:0:0:0:
58,73,133210,2,0,P|114:56|170:74,1,120,8|2,1:2|1:2,0:0:0:0:
256,121,134170,1,8,1:2:0:0:
256,217,134650,6,0,P|238:274|255:330,1,120,4|8,1:2|1:2,0:0:0:0:
348,355,135610,1,0,0:0:0:0:
427,300,136090,2,0,B|480:192|480:192|480:58,1,240,8|8,1:2|1:2,0:0:0:0:
401,19,137530,2,0,P|344:28|300:68,1,120,0|8,1:0|1:2,0:0:0:0:
256,154,138490,5,2,1:2:0:0:
256,250,138970,2,0,P|167:183|202:77,1,240,8|8,1:2|1:2,0:0:0:0:
292,43,140410,1,2,0:0:0:0:
383,76,140890,2,0,B|431:173|431:173|455:189|455:189|499:283,1,240,8|8,1:2|1:2,0:0:0:0:
432,353,142330,5,2,1:2:0:0:
370,281,142810,2,0,P|256:251|141:282,1,240,8|8,1:2|1:2,0:0:0:0:
77,353,144250,1,0,0:0:0:0:
36,267,144730,2,0,P|62:182|43:131,1,120,8|0,1:2|1:0,0:0:0:0:
4,74,145690,1,8,1:2:0:0:
100,71,146170,5,4,1:0:0:0:
195,68,146650,2,0,B|259:60|300:96|300:96|328:87|328:87|376:117|376:117|418:115,1,240,8|8,1:2|1:2,0:0:0:0:
503,69,148090,1,2,0:0:0:0:
500,165,148570,2,0,P|474:250|493:301,1,120,8|0,1:2|1:0,0:0:0:0:
456,371,149530,1,8,1:2:0:0:
384,308,150010,5,2,1:2:0:0:
312,245,150490,2,0,B|209:246|209:246|184:261|184:261|76:260,1,240,8|8,1:2|1:2,0:0:0:0:
88,356,151930,2,0,L|228:356,1,120,0|8,0:0|1:2,0:0:0:0:
304,356,152890,2,0,P|330:271|311:220,1,120,0|8,1:0|1:2,0:0:0:0:
256,175,153850,6,0,L|132:175,1,120,2|0,0:0|0:0,0:0:0:0:
50,130,154810,2,0,P|55:228|123:271,1,180,2|2,0:0|0:0,0:0:0:0:
208,239,156010,1,0,0:0:0:0:
304,239,156490,1,0,0:0:0:0:
304,239,156730,2,0,L|424:239,2,120,2|0|0,0:0|0:0|0:0,0:0:0:0:
256,155,158170,5,2,0:0:0:0:
172,106,158650,2,0,P|76:127|45:202,1,180,0|2,0:0|0:0,0:0:0:0:
52,293,159850,1,0,0:0:0:0:
145,316,160330,1,0,0:0:0:0:
145,316,160570,2,0,P|204:316|255:287,1,120,2|0,0:0|0:0,0:0:0:0:
277,192,161530,5,2,0:0:0:0:
279,96,162010,2,0,L|160:37,1,120,8|2,0:0|0:0,0:0:0:0:
75,37,162970,1,8,0:0:0:0:
75,37,163210,2,0,P|83:95|183:149,1,180,2|8,0:0|0:0,0:0:0:0:
256,210,164410,2,0,L|256:332,2,120,2|8|2,0:0|0:0|0:0,0:0:0:0:
329,149,165850,5,8,0:0:0:0:
414,192,166330,1,2,0:0:0:0:
334,245,166810,1,8,0:0:0:0:
334,245,167050,2,0,P|250:277|207:368,1,180,2|8,0:0|0:0,0:0:0:0:
302,351,168250,2,0,P|234:258|119:264,1,240,2|2,0:0|0:0,0:0:0:0:
256,192,169450,12,2,171130,0:0:0:0:
256,48,173050,5,4,1:0:0:0:
329,109,173530,2,0,B|329:228|329:228|276:336,1,240,8|8,1:2|1:2,0:0:0:0:
182,356,174970,2,0,P|125:337|69:354,1,120,2|8,0:0|1:2,0:0:0:0:
31,266,175930,2,0,P|83:237|109:185,1,120,0|8,1:0|1:2,0:0:0:0:
76,94,176890,5,2,1:2:0:0:
20,174,177370,2,0,B|78:200|128:177|128:177|152:194|152:194|207:180|207:180|246:194,1,240,8|8,1:2|1:2,0:0:0:0:
324,138,178810,1,0,0:0:0:0:
419,149,179290,2,0,B|402:268|402:268|335:367,1,240,8|8,1:2|1:2,0:0:0:0:
238,367,180730,6,0,P|167:367|124:329,2,120,2|8|0,1:2|1:2|0:0,0:0:0:0:
276,278,182170,1,8,1:2:0:0:
314,189,182650,1,0,0:0:0:0:
228,144,183130,2,0,P|170:161|85:31,1,240,8|8,1:2|1:2,0:0:0:0:
175,64,184570,5,2,1:2:0:0:
262,25,185050,2,0,B|332:106|332:106|336:134|336:134|401:214,1,240,8|8,1:2|1:2,0:0:0:0:
453,296,186490,1,0,0:0:0:0:
380,358,186970,2,0,P|270:354|256:245,1,240,8|8,1:2|1:2,0:0:0:0:
320,172,188410,5,4,1:0:0:0:
414,191,188890,2,0,P|496:117|436:24,1,240,8|8,1:2|1:2,0:0:0:0:
340,28,190330,1,2,0:0:0:0:
246,59,190810,2,0,P|177:66|112:41,1,120,8|0,1:2|1:0,0:0:0:0:
39,19,191770,1,8,1:2:0:0:
58,114,192250,5,2,1:2:0:0:
77,209,192730,2,0,B|172:281|172:281|290:304,1,240,8|8,1:2|1:2,0:0:0:0:
380,339,194170,1,0,0:0:0:0:
470,374,194650,2,0,L|486:125,1,240,8|8,1:2|1:2,0:0:0:0:
481,38,196090,5,2,1:2:0:0:
399,88,196570,2,0,B|288:88|288:88|268:102|268:102|160:102,1,240,8|8,1:2|1:2,0:0:0:0:
68,100,198010,1,0,0:0:0:0:
19,182,198490,2,0,P|18:246|89:273,1,120,8|0,1:2|1:0,0:0:0:0:
156,275,199450,1,8,1:2:0:0:
231,333,199930,5,2,1:2:0:0:
307,275,200410,2,0,B|360:167|360:167|360:47,1,240,8|8,1:2|1:2,0:0:0:0:
266,26,201850,1,0,0:0:0:0:
172,49,202330,2,0,P|116:29|49:48,2,120,8|0|8,1:2|1:0|1:2,0:0:0:0:
240,116,203770,5,4,1:0:0:0:
192,200,204250,2,0,P|304:187|327:77,2,240,8|8|8,1:2|1:2|1:2,0:0:0:0:
112,146,206650,2,0,L|56:283,1,120,0|8,1:0|1:2,0:0:0:0:
72,352,207610,5,2,1:2:0:0:
153,300,208090,2,0,B|206:278|270:300|270:300|335:321|387:300,1,240,8|8,1:2|1:2,0:0:0:0:
480,274,209530,1,0,0:0:0:0:
415,207,210010,2,0,P|408:146|434:96,1,120,8|0,1:2|1:0,0:0:0:0:
500,163,210970,2,0,P|507:224|481:274,1,120,8|2,1:2|1:2,0:0:0:0:
388,300,211930,6,0,L|148:300,1,240,8|8,1:2|1:2,0:0:0:0:
52,300,213370,1,0,0:0:0:0:
4,216,213850,1,8,1:2:0:0:
52,133,214330,2,0,P|108:116|166:129,2,120,0|8|2,1:0|1:2|0:0,0:0:0:0:
