osu file format v6

[General]
AudioFilename: Mario_Kart_DS_-_Waluigi_Pinball.mp3
AudioLeadIn: 0
PreviewTime: 8097
Countdown: 0
SampleSet: Normal
StackLeniency: 0.7
Mode: 0
LetterboxInBreaks: 1

[Editor]
DistanceSpacing: 0.699999988079071
BeatDivisor: 4
GridSize: 8

[Metadata]
Title:Waluigi Pinball
Artist:Kentaro Ishizaka
Creator:NoHItter
Version:50cc
Source:Super Smash Bros Brawl
Tags:Mario Kart Wii SSBB DS NIntendo MarioKart

[Difficulty]
HPDrainRate:2
CircleSize:3
OverallDifficulty:2
SliderMultiplier:1.4
SliderTickRate:1

[Events]
//Background and Video events
0,0,"background.png"
//Break Periods
2,46383,51136
//Storyboard Layer 0 (Background)
//Storyboard Layer 1 (Fail)
//Storyboard Layer 2 (Pass)
//Storyboard Layer 3 (Foreground)
Sprite,Foreground,Centre,"50cc.png",320,240 M,0,1676,2087,727,31,725,31 M,0,2087,2498,725,31,539,31 S,0,2909,2960,1,1.49152 S,0,2960,3012,1.49152,1.1024 S,0,3012,4553,1.1024 S,0,4553,4604,1.1024,1.32768 S,0,4604,4656,1.32768,1.1024 M,0,2498,4964,539,31 M,0,2498,6197,539,31 S,0,4656,6197,1.1024 S,0,6197,6248,1.1024,1.45056 S,0,6248,6300,1.45056,1.1024 M,0,6197,8179,539,31 S,0,6300,8200,1.1024 F,0,8179,8327,1,0 S,0,8200,8327,1.1024,4.52256
Sprite,Foreground,Centre,"50cc.png",320,240 M,0,854,,449,131 S,0,854,,2.08544 F,0,854,1265,1 F,0,1265,1676,1,0
Sprite,Foreground,Centre,"50cc.png",320,240 S,0,46296,47234,0.95904 S,0,47234,47283,0.95904,1.06144 S,0,47283,47333,1.06144,0.95904 S,0,47333,48814,0.95904 S,0,48814,48863,0.95904,1.06144 S,0,48863,48913,1.06144,0.95904 S,0,48913,50394,0.95904 S,0,50394,50443,0.95904,1.04096 S,0,50443,50493,1.04096,0.95904 M,0,46296,52023,-101,233,723,233
//Storyboard Sound Samples
//Background Colour Transformations
3,100,163,162,255

[TimingPoints]
8290,394.736842105263,4,1,0,70,1,0
11447,-100,4,1,0,40,0,0
14408,-100,4,1,0,70,0,0
17763,-100,4,1,0,40,0,0
20724,-100,4,1,0,70,0,0
24079,-100,4,1,0,40,0,0
27039,-100,4,1,0,70,0,0
30395,-100,4,1,0,40,0,0
33355,-100,4,1,0,70,0,0
55461,-100,4,1,0,80,0,0
55559,-100,4,2,0,80,0,0
55757,-100,4,1,0,40,0,0
58831,-100,4,1,0,70,0,0
61776,-100,4,1,0,40,0,0
65146,-100,4,1,0,70,0,0

[HitObjects]
72,192,8289,1,4
256,264,9078,1,0
440,192,9867,1,0
256,104,10657,2,0,B|224:192|224:192|312:192|312:192|256:288,1,280
168,256,11841,5,0
368,256,12631,1,0
360,56,13420,1,0
160,56,14210,1,0
256,56,14604,5,4
432,144,15394,1,0
256,232,16183,1,0
80,144,16973,2,0,B|160:232|256:80|360:160,1,280
344,48,18157,6,0,B|296:24|264:96|184:40,6,140
464,48,20920,6,0,B|368:160,1,140,4|0
344,64,21710,2,0,B|248:176,1,140,0|0
224,80,22499,2,0,B|128:192,1,140
104,96,23288,2,0,B|8:208,2,140,0|8|0
104,216,24473,5,0
288,288,25262,1,0
288,88,26052,1,0
104,144,26841,1,0
48,336,27236,6,0,B|144:224,1,140,4|0
168,320,28025,2,0,B|264:208,1,140,0|0
288,304,28815,2,0,B|384:192,1,140
400,296,29604,2,0,B|496:184,2,140,0|8|0
272,304,30788,6,0,B|272:216|176:216,2,140
336,232,31973,2,0,B|336:144|240:144,3,140
256,48,33552,6,0,B|184:48|160:136,1,140,4|8
256,136,34341,2,0,B|328:136|352:224,1,140,0|8
256,232,35131,1,0
256,232,35525,1,8
192,304,35920,2,0,B|344:304,1,140,0|8
424,336,36710,5,0
424,240,37104,1,8
424,144,37499,1,0
424,48,37894,1,8
328,48,38288,2,0,B|294:169|252:32,3,140,0|8|0|8
256,48,39867,6,0,B|184:48|160:136,1,140,4|8
256,136,40657,2,0,B|328:136|352:224,1,140,0|8
256,232,41446,1,0
256,232,41841,1,8
320,304,42236,2,0,B|168:304,1,140,0|8
89,336,43025,5,0
89,237,43420,1,8
89,139,43815,1,0
89,41,44210,1,8
187,41,44604,1,0
256,208,44703,12,4,46183
256,192,52696,6,0,B|344:192,1,70,4|0
440,192,53288,1,0
384,272,53683,1,0
440,352,54078,2,0,B|288:352,3,140,0|8|0|0
200,352,55657,5,4
80,192,56446,1,0
200,40,57236,1,0
80,192,58025,1,0
328,192,59012,6,0,B|240:192,1,70,4|0
144,192,59604,1,0
200,112,59999,1,0
144,32,60394,2,0,B|296:32,3,140,0|8|0|0
384,32,61973,5,0
384,224,62762,1,0
224,336,63552,2,0,B|128:336|144:200,3,140
256,192,65328,6,0,B|328:192,1,70,0|8
320,96,65920,1,0
416,96,66315,1,8
256,192,66907,6,0,B|184:192,1,70,0|8
192,288,67499,1,0
96,288,67894,1,8
256,192,68486,6,0,B|256:264,1,70,0|8
352,256,69078,1,0
352,352,69473,1,8
256,192,70065,6,0,B|256:120,1,70,0|8
160,128,70657,1,0
160,32,71052,1,8
256,32,71446,6,0,B|352:144,3,140,0|2|0|2
256,184,73025,2,0,B|160:296,3,140,0|2|0|2
256,208,74604,12,4,77762
