osu file format v6

[General]
AudioFilename: Mario_Kart_DS_-_Waluigi_Pinball.mp3
AudioLeadIn: 0
PreviewTime: 8097
Countdown: 0
SampleSet: Normal
StackLeniency: 0.8
Mode: 0
LetterboxInBreaks: 1

[Editor]
DistanceSpacing: 1
BeatDivisor: 4
GridSize: 8

[Metadata]
Title:Waluigi Pinball
Artist:Kentaro Ishizaka
Creator:NoHItter
Version:150cc
Source:Super Smash Bros Brawl
Tags:Mario Kart Wii SSBB DS NIntendo MarioKart

[Difficulty]
HPDrainRate:5
CircleSize:5
OverallDifficulty:5
SliderMultiplier:1.6
SliderTickRate:2

[Events]
//Background and Video events
0,0,"background.png"
//Break Periods
2,46383,51496
//Storyboard Layer 0 (Background)
//Storyboard Layer 1 (Fail)
//Storyboard Layer 2 (Pass)
//Storyboard Layer 3 (Foreground)
Sprite,Foreground,Centre,"150cc.png",320,240 M,0,1676,2087,727,31,725,31 M,0,2087,2498,725,31,539,31 S,0,2909,2960,1,1.49152 S,0,2960,3012,1.49152,1.1024 S,0,3012,4553,1.1024 S,0,4553,4604,1.1024,1.32768 S,0,4604,4656,1.32768,1.1024 M,0,2498,4964,539,31 M,0,2498,6197,539,31 S,0,4656,6197,1.1024 S,0,6197,6248,1.1024,1.45056 S,0,6248,6300,1.45056,1.1024 M,0,6197,8179,539,31 S,0,6300,8200,1.1024 F,0,8179,8327,1,0 S,0,8200,8327,1.1024,4.52256
Sprite,Foreground,Centre,"150cc.png",320,240 M,0,854,,465,377 S,0,854,,2.08544 F,0,854,1265,1 F,0,1265,1676,1,0
Sprite,Foreground,Centre,"150cc.png",320,240 S,0,46296,47234,0.95904 S,0,47234,47283,0.95904,1.06144 S,0,47283,47333,1.06144,0.95904 S,0,47333,48814,0.95904 S,0,48814,48863,0.95904,1.06144 S,0,48863,48913,1.06144,0.95904 S,0,48913,50394,0.95904 S,0,50394,50443,0.95904,1.04096 S,0,50443,50493,1.04096,0.95904 M,0,46296,52023,-101,233,723,233
//Storyboard Sound Samples
//Background Colour Transformations
3,100,163,162,255

[TimingPoints]
8290,394.736842105263,4,1,0,70,1,0
11447,-100,4,1,0,40,0,0
14408,-100,4,1,0,70,0,0
17763,-100,4,1,0,40,0,0
20724,-100,4,1,0,70,0,0
24079,-100,4,1,0,40,0,0
27039,-100,4,1,0,70,0,0
30395,-100,4,1,0,40,0,0
33355,-100,4,1,0,70,0,0
55461,-100,4,1,0,80,0,0
55559,-100,4,2,0,80,0,0
55757,-100,4,1,0,40,0,0
58831,-100,4,1,0,70,0,0
61776,-100,4,1,0,40,0,0
65146,-100,4,1,0,70,0,0

[HitObjects]
256,192,8289,5,4
176,192,8486,1,0
96,192,8683,1,0
40,248,8881,1,0
104,296,9078,2,0,B|272:296,1,160,8|0
320,248,9670,1,0
400,248,9867,1,8
456,304,10065,1,0
376,312,10262,1,0
320,248,10460,2,0,B|320:192|320:192|264:192|264:192|264:136,2,160
192,152,11644,5,0
192,152,11841,1,0
32,152,12236,2,0,B|32:240,3,80
112,240,13025,2,0,B|112:136,4,80
472,40,14604,6,0,B|376:40,1,80,4|0
472,40,14999,2,0,B|472:128,1,80
392,112,15394,2,0,B|312:168,1,80,8|0
400,192,15788,2,0,B|368:272,1,80
448,248,16183,2,0,B|440:344,2,80,8|0|0
400,192,16775,2,0,B|368:272,2,80,0|8|0
392,112,17367,2,0,B|312:168,1,80,8|0
256,304,17960,5,0
256,224,18157,1,0
256,144,18354,1,0
256,64,18552,1,0
256,144,18749,1,0
256,224,18946,1,0
256,224,19144,2,0,B|136:224,7,80
40,344,20920,6,0,B|136:344,1,80,4|0
200,344,21315,2,0,B|112:344,1,80
120,264,21710,2,0,B|120:168,3,80
120,104,22499,1,0
120,104,22696,1,0
120,24,22894,2,0,B|184:24|184:24|184:264|184:264|296:264,1,400
424,192,24275,6,0,B|424:104,1,80
288,192,24867,2,0,B|384:192,3,80
288,192,25657,2,0,B|288:288,4,80
448,192,26841,1,0
472,344,27236,5,4
416,288,27433,1,0
360,344,27631,1,0
304,288,27828,1,0
248,344,28025,2,0,B|184:280,2,80
304,288,28617,2,0,B|368:224,3,80
416,176,29407,1,0
352,128,29604,1,0
296,192,29802,2,0,B|224:256|224:256|176:208,1,160
88,80,30591,6,0,B|128:80|128:80|128:128,2,80
40,144,31183,2,0,B|40:184|40:184|88:184,1,80
160,184,31578,2,0,B|200:184|200:184|200:248,2,80
40,296,32367,1,0
40,144,32762,1,0
200,144,33157,1,0
40,40,33552,5,0
120,40,33749,2,0,B|120:128,3,80,0|0|0|8
472,344,34933,5,0
392,344,35131,2,0,B|392:256,3,80,0|0|0|8
312,248,35920,1,0
224,160,36216,1,8
40,352,36710,6,0,B|112:312,4,80,0|0|0|0|8
40,272,37696,2,0,B|112:232,4,80,0|0|0|0|0
192,216,38881,2,0,B|264:216|264:216|264:304|264:304|182:304,1,240,8|0
472,40,39867,6,0,B|408:104,3,80,0|0|8|0
352,48,40657,2,0,B|288:112|288:112|360:152|360:152|360:152,1,160,0|0
336,304,41446,2,0,B|336:224|336:224|256:184,3,160,8|0|8|0
48,48,43025,5,4
48,48,43223,1,8
112,96,43420,1,0
112,96,43617,1,0
48,136,43815,1,0
48,136,44012,1,0
112,184,44210,1,2
256,208,44604,12,4,46183
472,344,52696,6,0,B|408:280,1,80,8|0
464,136,53288,1,0
464,216,53486,1,0
464,136,53683,1,0
312,136,54078,2,0,B|408:136,7,80
392,216,55657,5,4
392,296,55854,1,0
328,344,56052,1,0
248,344,56249,1,0
168,344,56446,1,0
160,192,56841,5,0
240,192,57038,1,0
320,192,57236,1,0
392,216,57433,1,0
392,296,57631,1,0
392,296,57828,1,0
256,192,59012,5,8
256,192,59210,1,0
256,192,59604,2,0,B|192:240|192:240|256:304,1,160
256,192,60394,2,0,B|320:144|320:144|264:80,2,160
256,192,61578,2,0,B|184:248,1,80
128,288,61973,5,0
80,224,62170,2,0,B|152:168,1,80
272,72,62762,2,0,B|192:136,3,80
128,104,63552,2,0,B|64:40,6,80
256,32,65328,6,0,B|256:128,1,80,0|8
120,192,65920,1,0
240,192,66217,1,0
360,192,66512,1,8
256,352,66907,6,0,B|256:256,1,80,0|8
392,192,67499,1,0
272,192,67796,1,0
152,192,68091,1,8
480,192,68486,5,0
480,192,68684,1,8
376,72,69078,2,0,B|376:216,1,120
376,312,69670,1,0
32,192,70065,5,0
32,192,70262,1,8
136,72,70657,2,0,B|136:208,1,120
136,312,71249,1,0
256,312,71446,6,0,B|192:312,2,53.3333333333333
312,312,71841,2,0,B|376:312,2,53.3333333333333
288,264,72237,2,0,B|224:264,2,53.3333333333333
320,216,72632,2,0,B|384:216,2,53.3333333333333
264,216,73026,2,0,B|200:216,2,53.3333333333333
288,168,73420,2,0,B|368:168,2,53.3333333333333
264,120,73816,2,0,B|192:120,2,53.3333333333333
320,120,74211,2,0,B|376:120,2,53.3333333333333
256,208,74604,12,4,77762
