osu file format v5

[General]
AudioFilename: Kentaro Ishizaka - Star Wolf (Brawl remix).mp3
AudioLeadIn: 0
AudioHash: 9682fa4262ffda63f5eee679982d7c4f
PreviewTime: 8368
Countdown: 0
SampleSet: Normal
EditorBookmarks: 2930,38719,42228,95561

[Metadata]
Title:Star Wolf (Brawl remix)
Artist:Kentaro Ishizaka
Creator:Sinistro
Version:Playtime is over, Star Fox.

[Difficulty]
HPDrainRate:8
CircleSize:5
OverallDifficulty:7
SliderMultiplier:1.4
SliderTickRate:1

[Events]
//Background and Video events
0,0,"Wolf background.png"
//Break Periods
2,39620,41328
//Storyboard Layer 0 (Background)
//Storyboard Layer 1 (Failing)
//Storyboard Layer 2 (Passing)
//Storyboard Layer 3 (Foreground)
//Storyboard Sound Samples
//Background Colour Transformations
3,100,163,162,255

[TimingPoints]
2930,350.877192982456,4,1,0,100

[Colours]
Combo1 : 192,192,192
Combo2 : 0,64,128
Combo3 : 105,115,150
Combo4 : 0,255,255

[HitObjects]
256,192,2930,12,0,7140
464,336,8544,1,4
296,338,9070,1,0
240,338,9245,1,0
156,337,9508,1,0
71,337,9772,1,0
15,338,9947,1,4
104,196,10473,5,0
104,196,10560,1,0
104,196,10649,1,0
178,196,10883,1,0
271,196,11175,1,0
327,196,11351,1,4
494,196,11877,1,0
494,140,12052,1,4
414,61,12403,5,0
301,58,12754,5,0
217,60,13016,1,0
217,144,13280,1,0
183,98,13456,1,4
100,21,13807,1,4
100,133,14158,5,2
99,300,14684,2,0,B|99:300|99:227,1,70
173,230,15093,1,0
234,300,15386,1,0
289,301,15561,1,2
456,301,16087,5,0
456,301,16174,1,0
456,301,16263,1,0
456,217,16526,1,0
454,133,16789,1,0
454,76,16965,1,2
286,75,17491,5,0
252,119,17666,1,0
195,182,17929,1,0
139,241,18193,1,0
83,241,18368,2,2,B|83:241|6:37,2,210
195,239,19772,6,0,B|195:239|379:364,1,210
424,356,20473,1,0
424,271,20737,1,0
424,187,21000,1,0
423,131,21175,2,0,B|423:131|293:41,1,140
251,51,21701,5,2
251,51,21789,1,2
251,51,21877,2,2,B|251:51|104:51,1,140
32,131,22579,6,0,B|32:131|159:303,1,210
212,301,23280,1,0
324,301,23544,1,0
407,303,23807,1,0
407,247,23982,2,0,B|407:247|407:94,1,140
350,106,24508,5,2
350,106,24596,1,2
350,106,24684,2,2,B|350:106|241:201,1,140
244,310,25386,5,0
160,310,25649,1,0
104,310,25824,1,0
104,310,25912,1,0
103,254,26087,1,4
103,200,26263,5,0
103,147,26438,1,0
103,93,26615,1,0
103,93,26701,1,0
103,93,26790,1,0
103,13,27052,1,0
172,50,27315,1,0
207,90,27491,1,0
241,50,27666,1,0
276,89,27842,1,4
382,89,28193,5,0
461,89,28456,1,0
421,124,28631,1,0
421,124,28719,1,0
421,176,28894,1,4
421,229,29070,5,0
421,229,29158,1,0
368,229,29333,1,0
368,229,29421,1,0
323,257,29596,1,0
278,227,29772,1,0
278,227,29859,1,0
278,226,29947,1,0
234,256,30122,1,0
180,256,30298,1,0
127,256,30473,1,0
73,255,30649,1,4
73,142,31000,6,0,B|73:142|217:142,1,140
211,29,31701,1,0
311,79,32052,1,0
361,103,32228,1,0
412,124,32403,2,0,B|412:124|412:267,3,140
329,340,33807,5,2
216,342,34158,1,2
104,342,34508,1,2
104,229,34859,1,2
104,116,35210,5,0
104,116,35298,1,0
104,116,35385,1,4
160,116,35561,5,0
257,171,35912,1,0
354,116,36263,1,4
451,60,36614,6,0,B|451:60|470:145|456:193|418:236|372:260|317:273,1,280
257,323,37579,1,0
173,324,37842,1,0
133,284,38017,2,0,B|133:284|89:261|72:239|59:208|45:168|45:101,1,210
45,106,38631,1,0
45,106,38719,6,2,B|45:106|157:66|161:134|109:223|256:195|287:193,1,280
467,341,42228,6,2,B|467:341|468:318|465:288|446:259|431:230|395:219|372:205|316:209,1,210
278,209,42929,1,0
165,209,43193,1,0
108,209,43456,1,0
108,153,43631,2,2,B|108:153|107:130|110:100|129:71|144:42|180:31|203:17|259:21,1,210
275,64,44333,1,0
263,118,44508,1,0
227,161,44684,1,0
227,273,45035,5,2
302,310,45298,1,0
377,273,45561,1,0
377,216,45737,1,2
457,240,46000,1,0
457,156,46263,1,0
458,100,46438,1,6
353,59,46789,5,0
241,62,47140,1,0
128,62,47491,1,0
15,62,47842,6,0,B|15:62|15:281,1,210
15,328,48544,1,0
98,328,48807,1,0
181,328,49070,1,0
236,327,49245,6,2,B|236:327|390:172,1,210
440,177,49947,1,0
441,93,50210,1,0
365,55,50473,1,0
364,111,50649,5,4
313,271,51175,1,0
313,271,51351,1,4
145,269,51877,1,0
145,269,52052,1,4
101,106,52579,1,0
101,106,52754,1,4
213,107,53105,5,0
325,106,53456,2,2,B|325:106|376:159|352:202|293:181|258:249|335:286,1,210
379,278,54158,1,0
462,280,54421,1,0
462,196,54684,1,0
461,140,54859,2,2,B|461:140|458:113|446:87|432:68|416:49|392:25|365:15|337:11|307:11|266:20|239:35,1,280
189,31,55737,5,0
189,142,56087,1,0
188,198,56263,1,0
132,198,56438,5,0
132,198,56614,1,0
146,252,56789,1,0
146,252,56965,1,0
155,307,57140,2,4,B|155:307|174:379,2,70
211,306,57666,6,0,B|211:306|355:306,1,140
351,249,58193,2,0,B|351:249|495:249,1,140
492,192,58719,1,4
492,79,59070,5,0
379,79,59421,1,0
379,79,59508,1,0
379,79,59596,1,4
266,79,59947,2,0,B|266:79|193:79,1,70
139,80,60298,1,0
83,81,60473,5,0
111,189,60824,1,0
111,189,60912,1,0
111,189,61000,1,4
166,190,61175,6,0,B|166:190|313:190,1,140
362,191,61701,1,0
418,191,61877,1,0
483,281,62228,5,0
483,281,62315,1,0
483,281,62403,1,4
446,323,62579,6,0,B|446:323|302:323,1,140
193,325,63280,2,0,B|193:325|45:325,1,140
53,325,63719,5,0
53,325,63807,1,4
53,269,63982,5,0
53,156,64333,1,0
56,44,64684,6,0,B|56:44|109:95|152:71|131:12|199:-23|236:54,1,210
285,43,65386,1,0
343,102,65649,1,0
398,165,65912,1,0
398,165,66087,1,4
398,249,66351,5,0
314,240,66614,1,0
260,224,66789,1,0
212,194,66965,1,0
170,156,67140,1,0
138,109,67315,1,0
81,108,67491,5,0
81,108,67579,1,0
81,108,67666,1,0
81,220,68017,1,0
81,220,68105,1,0
81,220,68193,1,0
83,332,68544,5,0
83,332,68631,1,0
83,332,68719,1,0
138,332,68894,1,0
138,332,68982,1,0
138,332,69070,1,0
250,332,69421,1,0
250,332,69508,1,0
250,332,69596,1,0
362,332,69947,5,0
362,332,70034,1,0
362,332,70122,1,0
418,332,70298,1,0
418,332,70386,1,0
418,332,70473,1,0
419,219,70824,1,0
419,219,70912,1,0
419,219,71000,1,0
418,106,71351,5,0
337,28,71701,1,0
252,27,71965,1,0
168,27,72228,1,0
112,28,72403,1,4
106,139,72754,1,4
61,241,73105,6,0,B|61:241|25:318,1,70
143,301,73631,1,0
199,301,73807,1,0
282,300,74070,1,0
365,299,74333,1,0
420,298,74508,2,0,B|420:298|498:298,1,70
492,185,75035,5,0
492,185,75122,1,0
492,185,75210,1,0
408,184,75473,1,0
323,185,75737,1,0
267,185,75912,1,4
99,183,76438,5,0
100,126,76614,1,0
101,42,76877,1,0
184,42,77140,1,0
239,40,77315,2,0,B|239:40|391:40,3,140
391,151,78719,5,0
223,152,79245,1,0
54,154,79772,1,0
51,264,80122,6,2,B|51:264|143:376,1,140
196,373,80649,2,2,B|196:373|291:248,1,140
336,262,81175,1,2
448,263,81526,5,0
449,150,81877,1,0
449,94,82052,1,0
346,48,82403,1,0
304,86,82579,1,2
261,49,82754,1,0
205,47,82929,5,0
207,159,83280,1,0
150,160,83456,1,0
37,160,83807,1,0
4,205,83982,1,2
37,250,84158,1,0
38,305,84333,5,0
121,306,84596,1,0
176,306,84771,1,0
176,306,84859,1,0
177,250,85034,1,4
215,209,85210,5,0
270,208,85385,1,0
270,151,85562,1,0
270,151,85648,1,0
270,151,85737,1,0
353,151,85999,1,0
353,234,86262,1,0
394,272,86438,1,0
449,272,86613,1,0
489,233,86789,1,4
423,141,87140,5,0
424,57,87403,1,0
368,56,87578,1,0
368,56,87666,1,0
312,56,87841,1,4
276,99,88017,5,0
276,99,88105,1,0
238,140,88280,1,0
238,140,88368,1,0
198,179,88543,1,0
146,157,88719,1,0
146,157,88806,1,0
146,156,88894,1,0
146,100,89069,1,0
147,43,89245,1,0
102,9,89420,1,0
57,42,89596,1,4
57,154,89947,5,0
57,266,90298,1,0
169,267,90649,1,0
169,267,90737,1,0
169,267,90824,1,2
169,267,90912,1,0
169,267,91000,1,4
281,267,91351,6,0,B|281:267|425:267,1,140
421,154,92052,1,0
421,154,92140,1,0
421,154,92227,1,2
421,154,92315,1,0
421,154,92403,1,4
308,154,92754,5,0
308,154,92929,1,2
251,153,93105,1,0
251,153,93280,1,4
194,153,93456,1,0
194,153,93631,1,2
137,153,93807,1,0
137,153,93982,1,4
80,154,94158,5,0
80,154,94245,1,0
80,154,94333,1,4
107,105,94508,5,4
1,66,94859,5,4
102,17,95210,5,4
