osu file format v14

[General]
AudioFilename: ZERO.mp3
AudioLeadIn: 1500
PreviewTime: 54010
Countdown: 0
SampleSet: Normal
StackLeniency: 0.7
Mode: 1
LetterboxInBreaks: 0
WidescreenStoryboard: 0

[Editor]
DistanceSpacing: 1
BeatDivisor: 4
GridSize: 8
TimelineZoom: 1

[Metadata]
Title:ZERO
TitleUnicode:ZERO
Artist:Kensho Ono
ArtistUnicode:小野賢章
Creator:Meow2
Version:Muzukashii
Source:黒子のバスケ
Tags:Kuroko no Basuke Anime Opening 3rd Season Teiko Arc R・O・N Prophecy nadapan -Yuzuriha Cerulean Veyron
BeatmapID:696367
BeatmapSetID:311234

[Difficulty]
HPDrainRate:5
CircleSize:5
OverallDifficulty:4
ApproachRate:5
SliderMultiplier:1.4
SliderTickRate:1

[Events]
//Background and Video events
0,0,"Teiko.jpg",0,100
//Break Periods
//Storyboard Layer 0 (Background)
//Storyboard Layer 1 (Fail)
//Storyboard Layer 2 (Pass)
//Storyboard Layer 3 (Foreground)
//Storyboard Sound Samples

[TimingPoints]
472.453578138534,307.692307692308,4,1,0,90,1,0
54626,-100,4,1,0,90,0,1
74318,-100,4,1,0,90,0,0

[HitObjects]
320,216,472,5,0,0:0:0:0:
248,208,626,1,0,0:0:0:0:
88,152,780,1,8,0:0:0:0:
240,184,1087,1,0,0:0:0:0:
320,216,1241,5,8,0:0:0:0:
208,176,1549,1,0,0:0:0:0:
480,360,1703,1,8,0:0:0:0:
352,296,2010,1,8,0:0:0:0:
320,216,2164,1,0,0:0:0:0:
128,128,2626,1,0,0:0:0:0:
104,64,2780,1,8,0:0:0:0:
224,64,2933,1,0,0:0:0:0:
192,128,3087,1,0,0:0:0:0:
176,232,3241,1,8,0:0:0:0:
320,224,3549,1,0,0:0:0:0:
248,128,3703,1,8,0:0:0:0:
352,216,4010,1,0,0:0:0:0:
288,192,4164,1,8,0:0:0:0:
352,216,4472,1,8,0:0:0:0:
472,232,4626,1,0,0:0:0:0:
200,176,5395,1,4,0:0:0:0:
32,136,5703,1,8,0:0:0:0:
140,156,5857,1,0,0:0:0:0:
200,176,6010,1,8,0:0:0:0:
72,160,6318,1,8,0:0:0:0:
480,184,6626,1,0,0:0:0:0:
330,194,6933,1,0,0:0:0:0:
200,176,7087,1,0,0:0:0:0:
260,200,7241,1,8,0:0:0:0:
224,258,7395,1,0,0:0:0:0:
200,176,7549,1,8,0:0:0:0:
168,136,7857,1,0,0:0:0:0:
164,186,8164,1,0,0:0:0:0:
248,112,8318,1,8,0:0:0:0:
88,120,8626,1,8,0:0:0:0:
248,112,8933,1,8,0:0:0:0:
131,188,9241,1,0,0:0:0:0:
124,176,9395,1,8,0:0:0:0:
186,230,9549,1,8,0:0:0:0:
256,216,9703,1,0,0:0:0:0:
102,193,9857,1,0,0:0:0:0:
256,192,10010,1,8,0:0:0:0:
104,184,10318,1,4,0:0:0:0:
192,216,10626,1,8,0:0:0:0:
96,184,10780,1,0,0:0:0:0:
224,56,10933,1,8,0:0:0:0:
192,208,11241,1,8,0:0:0:0:
104,152,11549,1,0,0:0:0:0:
111,148,11857,1,0,0:0:0:0:
127,182,12010,1,0,0:0:0:0:
184,224,12164,1,8,0:0:0:0:
232,200,12318,1,0,0:0:0:0:
216,120,12472,1,8,0:0:0:0:
48,136,12779,1,0,0:0:0:0:
88,136,13087,1,0,0:0:0:0:
73,153,13241,1,8,0:0:0:0:
88,136,13549,1,8,0:0:0:0:
224,168,13857,1,0,0:0:0:0:
352,208,14164,1,0,0:0:0:0:
120,152,14318,1,8,0:0:0:0:
152,184,14472,1,0,0:0:0:0:
152,184,14626,1,8,0:0:0:0:
184,168,14780,1,8,0:0:0:0:
352,224,14933,1,0,0:0:0:0:
280,224,15087,1,0,0:0:0:0:
224,168,15241,1,4,0:0:0:0:
256,288,15549,1,8,0:0:0:0:
360,136,16164,1,8,0:0:0:0:
232,184,16472,1,0,0:0:0:0:
360,136,16779,1,8,0:0:0:0:
360,136,17395,1,8,0:0:0:0:
360,136,17702,1,0,0:0:0:0:
248,160,18010,1,0,0:0:0:0:
360,136,18164,1,8,0:0:0:0:
224,144,18472,1,0,0:0:0:0:
360,136,18626,1,8,0:0:0:0:
248,160,18780,1,0,0:0:0:0:
168,88,19087,5,8,0:0:0:0:
360,136,19549,1,8,0:0:0:0:
144,192,19703,1,0,0:0:0:0:
88,72,20164,1,0,0:0:0:0:
248,112,20472,1,8,0:0:0:0:
360,248,20933,1,0,0:0:0:0:
248,112,21087,1,8,0:0:0:0:
352,208,21395,1,0,0:0:0:0:
248,112,21702,1,8,0:0:0:0:
176,208,22010,1,0,0:0:0:0:
56,216,22164,1,0,0:0:0:0:
248,112,22318,1,8,0:0:0:0:
248,112,22625,1,0,0:0:0:0:
248,112,22933,1,8,0:0:0:0:
80,208,23395,1,0,0:0:0:0:
248,112,23549,1,8,0:0:0:0:
320,232,23857,1,0,0:0:0:0:
248,112,24164,1,8,0:0:0:0:
352,176,24472,1,0,0:0:0:0:
240,296,24626,1,0,0:0:0:0:
248,112,24779,1,8,0:0:0:0:
248,112,25087,1,0,0:0:0:0:
248,112,25395,1,8,0:0:0:0:
224,320,25857,1,0,0:0:0:0:
248,112,26010,5,8,0:0:0:0:
232,248,26318,1,0,0:0:0:0:
232,256,26625,1,8,0:0:0:0:
152,112,27241,1,8,0:0:0:0:
72,112,27549,1,0,0:0:0:0:
208,88,27857,1,8,0:0:0:0:
184,24,28010,1,0,0:0:0:0:
272,160,28318,1,0,0:0:0:0:
72,112,28626,1,4,0:0:0:0:
72,112,28933,1,12,0:0:0:0:
72,112,29241,1,12,0:0:0:0:
272,184,29549,1,0,0:0:0:0:
240,192,29626,1,0,0:0:0:0:
176,160,29703,1,0,0:0:0:0:
192,160,30010,1,4,0:0:0:0:
272,80,30318,5,8,0:0:0:0:
224,184,30780,1,0,0:0:0:0:
192,160,30933,1,8,0:0:0:0:
272,256,31087,1,0,0:0:0:0:
144,176,31395,1,8,0:0:0:0:
192,160,31703,1,0,0:0:0:0:
160,224,31857,1,8,0:0:0:0:
168,192,32164,1,8,0:0:0:0:
192,160,32472,1,0,0:0:0:0:
192,160,32780,1,8,0:0:0:0:
240,184,33241,1,0,0:0:0:0:
40,112,33395,1,8,0:0:0:0:
40,112,33549,1,0,0:0:0:0:
160,144,33857,1,8,0:0:0:0:
192,160,34164,1,0,0:0:0:0:
192,160,34472,1,8,0:0:0:0:
208,176,34780,1,0,0:0:0:0:
192,160,34933,1,8,0:0:0:0:
112,272,35241,1,8,0:0:0:0:
208,168,35549,1,0,0:0:0:0:
160,216,35703,1,0,0:0:0:0:
192,160,35857,1,8,0:0:0:0:
368,112,36164,1,8,0:0:0:0:
192,160,36472,1,8,0:0:0:0:
304,168,36780,1,0,0:0:0:0:
368,216,36933,1,0,0:0:0:0:
192,160,37087,1,8,0:0:0:0:
192,160,37395,1,8,0:0:0:0:
312,224,37703,1,8,0:0:0:0:
376,256,38010,1,0,0:0:0:0:
408,272,38164,1,0,0:0:0:0:
376,256,38318,1,8,0:0:0:0:
192,160,38626,1,8,0:0:0:0:
96,160,38933,1,0,0:0:0:0:
152,200,39087,1,0,0:0:0:0:
192,160,39241,1,8,0:0:0:0:
160,224,39395,1,0,0:0:0:0:
136,160,39549,1,8,0:0:0:0:
192,160,39857,1,0,0:0:0:0:
96,160,40010,1,8,0:0:0:0:
96,160,40318,1,0,0:0:0:0:
96,160,40472,1,8,0:0:0:0:
96,160,40780,1,8,0:0:0:0:
96,160,40933,1,0,0:0:0:0:
320,208,41241,1,0,0:0:0:0:
96,160,41395,1,8,0:0:0:0:
96,160,41703,1,8,0:0:0:0:
96,160,42010,1,8,0:0:0:0:
184,192,42164,1,0,0:0:0:0:
96,160,42318,1,8,0:0:0:0:
200,168,42626,1,0,0:0:0:0:
96,160,42780,1,8,0:0:0:0:
240,192,43087,1,0,0:0:0:0:
96,160,43241,1,8,0:0:0:0:
168,160,43395,1,8,0:0:0:0:
96,160,43549,1,8,0:0:0:0:
120,96,43703,1,0,0:0:0:0:
168,200,43857,1,8,0:0:0:0:
104,168,44010,1,0,0:0:0:0:
168,200,44164,1,0,0:0:0:0:
96,160,44472,1,8,0:0:0:0:
96,160,44780,1,0,0:0:0:0:
96,160,44933,1,8,0:0:0:0:
96,160,45241,1,0,0:0:0:0:
96,160,45395,1,8,0:0:0:0:
96,160,45703,1,8,0:0:0:0:
96,160,45857,1,0,0:0:0:0:
96,160,46164,1,0,0:0:0:0:
96,160,46318,1,8,0:0:0:0:
96,160,46626,1,8,0:0:0:0:
96,160,46933,1,8,0:0:0:0:
144,200,47087,1,0,0:0:0:0:
96,160,47241,1,8,0:0:0:0:
208,176,47549,1,0,0:0:0:0:
96,160,47703,1,8,0:0:0:0:
48,176,48010,1,0,0:0:0:0:
96,160,48164,1,8,0:0:0:0:
160,184,48318,1,0,0:0:0:0:
224,208,48472,1,0,0:0:0:0:
224,208,48626,1,8,0:0:0:0:
160,176,48780,1,0,0:0:0:0:
96,160,49087,1,0,0:0:0:0:
96,160,49395,1,8,0:0:0:0:
96,160,49703,1,0,0:0:0:0:
120,200,50010,1,0,0:0:0:0:
192,192,50164,1,0,0:0:0:0:
96,160,50318,1,8,0:0:0:0:
200,208,50626,1,8,0:0:0:0:
96,160,50933,1,0,0:0:0:0:
160,176,51087,1,8,0:0:0:0:
120,200,51241,1,0,0:0:0:0:
96,160,51549,1,8,0:0:0:0:
32,176,51857,1,0,0:0:0:0:
96,160,52164,1,12,0:0:0:0:
96,160,52472,1,4,0:0:0:0:
96,160,52626,1,12,0:0:0:0:
96,160,52933,1,4,0:0:0:0:
96,160,53087,1,12,0:0:0:0:
256,192,53395,12,0,54318,0:0:0:0:
272,264,54626,5,4,0:0:0:0:
128,176,54933,1,8,0:0:0:0:
128,192,55087,1,0,0:0:0:0:
128,176,55241,1,8,0:0:0:0:
160,176,55318,1,8,0:0:0:0:
352,224,55395,1,8,0:0:0:0:
152,128,55549,1,0,0:0:0:0:
128,176,55857,1,8,0:0:0:0:
29,153,56164,1,0,0:0:0:0:
128,176,56472,1,8,0:0:0:0:
8,128,56780,1,0,0:0:0:0:
64,144,56933,1,0,0:0:0:0:
128,176,57087,1,8,0:0:0:0:
128,176,57395,1,8,0:0:0:0:
272,256,57549,1,0,0:0:0:0:
128,176,57703,1,0,0:0:0:0:
168,168,57780,1,0,0:0:0:0:
365,285,57857,1,0,0:0:0:0:
128,176,58010,1,8,0:0:0:0:
128,176,58318,1,0,0:0:0:0:
219,167,58626,1,8,0:0:0:0:
128,176,58933,1,0,0:0:0:0:
136,192,59087,1,0,0:0:0:0:
144,112,59241,1,8,0:0:0:0:
80,136,59549,1,0,0:0:0:0:
128,176,59857,1,8,0:0:0:0:
112,168,60010,1,0,0:0:0:0:
128,176,60164,1,8,0:0:0:0:
112,200,60241,1,8,0:0:0:0:
320,296,60318,1,8,0:0:0:0:
128,176,60472,1,0,0:0:0:0:
128,176,60780,1,8,0:0:0:0:
128,176,61087,1,0,0:0:0:0:
288,192,61395,1,8,0:0:0:0:
144,184,61703,1,8,0:0:0:0:
160,176,61857,1,0,0:0:0:0:
128,176,62010,1,0,0:0:0:0:
72,152,62318,1,8,0:0:0:0:
40,136,62472,1,0,0:0:0:0:
264,176,62780,1,0,0:0:0:0:
128,176,62933,1,8,0:0:0:0:
296,200,63241,1,0,0:0:0:0:
275,233,63395,1,0,0:0:0:0:
275,233,63549,1,8,0:0:0:0:
275,233,63703,1,8,0:0:0:0:
128,176,63857,1,0,0:0:0:0:
144,184,64164,1,8,0:0:0:0:
128,176,64472,1,4,0:0:0:0:
128,176,64780,1,8,0:0:0:0:
192,184,64933,1,0,0:0:0:0:
208,160,65087,1,0,0:0:0:0:
176,160,65164,1,0,0:0:0:0:
128,176,65241,1,0,0:0:0:0:
128,176,65395,1,8,0:0:0:0:
128,176,65703,1,8,0:0:0:0:
192,184,66010,1,0,0:0:0:0:
128,176,66318,1,8,0:0:0:0:
248,184,66626,1,0,0:0:0:0:
304,232,66780,1,0,0:0:0:0:
128,176,66933,1,8,0:0:0:0:
128,176,67241,1,0,0:0:0:0:
200,160,67395,1,0,0:0:0:0:
128,176,67549,1,8,0:0:0:0:
128,176,67626,1,8,0:0:0:0:
256,152,67703,1,8,0:0:0:0:
128,176,67857,1,0,0:0:0:0:
128,176,68164,1,8,0:0:0:0:
384,273,68472,1,0,0:0:0:0:
128,176,68780,1,8,0:0:0:0:
232,160,68933,1,8,0:0:0:0:
152,136,69087,1,0,0:0:0:0:
128,176,69395,1,0,0:0:0:0:
128,176,69703,1,8,0:0:0:0:
200,160,69857,1,0,0:0:0:0:
128,176,70010,1,0,0:0:0:0:
128,176,70087,1,0,0:0:0:0:
256,152,70164,1,0,0:0:0:0:
128,176,70318,1,8,0:0:0:0:
128,176,70626,1,8,0:0:0:0:
366,273,70933,1,0,0:0:0:0:
208,192,71241,1,8,0:0:0:0:
88,248,71549,1,8,0:0:0:0:
120,176,71703,1,0,0:0:0:0:
208,192,71857,1,0,0:0:0:0:
256,152,72164,1,8,0:0:0:0:
208,192,72318,1,0,0:0:0:0:
256,152,72626,1,0,0:0:0:0:
208,192,72780,1,8,0:0:0:0:
208,192,73087,1,0,0:0:0:0:
200,80,73395,1,8,0:0:0:0:
232,208,73703,1,0,0:0:0:0:
256,232,73780,1,0,0:0:0:0:
200,192,73857,1,0,0:0:0:0:
200,192,74010,1,0,0:0:0:0:
200,192,74318,1,4,0:0:0:0:
200,192,74933,1,8,0:0:0:0:
200,192,75549,1,4,0:0:0:0:
200,192,76164,1,8,0:0:0:0:
200,192,76780,1,4,0:0:0:0:
192,192,77703,1,8,0:0:0:0:
192,192,78010,1,4,0:0:0:0:
296,152,78318,1,8,0:0:0:0:
192,192,78626,1,0,0:0:0:0:
216,200,78780,1,0,0:0:0:0:
192,192,78933,1,8,0:0:0:0:
192,192,79241,1,0,0:0:0:0:
192,192,79549,1,8,0:0:0:0:
192,192,79703,1,8,0:0:0:0:
192,192,80010,1,8,0:0:0:0:
192,192,80164,1,8,0:0:0:0:
192,192,80472,1,8,0:0:0:0:
64,144,80626,1,0,0:0:0:0:
136,128,80780,1,8,0:0:0:0:
264,64,81087,1,8,0:0:0:0:
144,144,81395,1,8,0:0:0:0:
168,160,81472,1,8,0:0:0:0:
144,224,81549,1,8,0:0:0:0:
216,184,81703,1,0,0:0:0:0:
224,184,82010,1,8,0:0:0:0:
136,144,82164,1,0,0:0:0:0:
136,144,82472,1,8,0:0:0:0:
336,208,82780,1,0,0:0:0:0:
136,144,82933,1,8,0:0:0:0:
136,144,83241,1,8,0:0:0:0:
136,144,83549,1,8,0:0:0:0:
136,144,83857,1,0,0:0:0:0:
128,160,84164,1,4,0:0:0:0:
256,192,84318,12,0,89087,0:0:0:0:
