osu file format v14

[General]
AudioFilename: ZERO.mp3
AudioLeadIn: 1500
PreviewTime: 54010
Countdown: 0
SampleSet: Soft
StackLeniency: 0.7
Mode: 0
LetterboxInBreaks: 0
WidescreenStoryboard: 0

[Editor]
DistanceSpacing: 1.1
BeatDivisor: 4
GridSize: 8
TimelineZoom: 1

[Metadata]
Title:ZERO
TitleUnicode:ZERO
Artist:Kensho Ono
ArtistUnicode:小野賢章
Creator:Meow2
Version:Easy
Source:黒子のバスケ
Tags:Kuroko no Basuke Anime Opening 3rd Season Teiko Arc R・O・N Prophecy nadapan -Yuzuriha Cerulean Veyron
BeatmapID:704753
BeatmapSetID:311234

[Difficulty]
HPDrainRate:2
CircleSize:3
OverallDifficulty:2
ApproachRate:3
SliderMultiplier:0.8
SliderTickRate:1

[Events]
//Background and Video events
0,0,"Teiko.jpg",0,0
Video,-472,"ZERO.avi"
//Break Periods
2,15440,16263
//Storyboard Layer 0 (Background)
//Storyboard Layer 1 (Fail)
//Storyboard Layer 2 (Pass)
//Storyboard Layer 3 (Foreground)
//Storyboard Sound Samples

[TimingPoints]
472.453578138534,307.692307692308,4,2,0,80,1,0
5395,-100,4,1,1,80,0,0
8164,-100,4,1,2,75,0,0
8318,-100,4,1,1,80,0,0
9395,-100,4,1,2,75,0,0
9549,-100,4,1,1,80,0,0
13087,-100,4,1,2,75,0,0
13241,-100,4,1,1,80,0,0
14318,-100,4,1,2,75,0,0
14472,-100,4,1,1,80,0,0
20164,-100,4,2,1,80,0,0
20472,-100,4,2,2,75,0,0
20626,-100,4,2,1,80,0,0
21703,-100,4,2,2,75,0,0
21857,-100,4,2,1,80,0,0
22933,-100,4,2,2,75,0,0
23087,-100,4,2,1,80,0,0
24164,-100,4,2,2,75,0,0
24318,-100,4,2,1,80,0,0
25395,-100,4,2,2,75,0,0
25549,-100,4,2,1,80,0,0
28626,-100,4,1,1,80,0,0
31549,-100,4,1,2,75,0,0
31703,-100,4,1,1,80,0,0
34010,-100,4,1,2,75,0,0
34164,-100,4,1,1,80,0,0
42626,-100,4,1,2,75,0,0
42780,-100,4,1,1,80,0,0
46318,-100,4,1,2,75,0,0
46472,-100,4,1,1,80,0,0
52164,-100,4,2,1,30,0,0
54626,-100,4,1,1,80,0,1
74318,-100,4,1,1,80,0,0
80780,-100,4,1,2,75,0,0
80933,-100,4,1,1,80,0,0
84164,-100,4,2,1,30,0,0

[Colours]
Combo1 : 128,0,255
Combo2 : 0,202,0
Combo3 : 0,255,255
Combo4 : 242,24,57
Combo5 : 255,192,0
Combo6 : 0,0,128

[HitObjects]
256,192,472,12,0,4626,0:0:0:0:
448,112,5395,6,0,P|448:40|376:40,1,160,4|8,0:0|0:0,0:0:0:0:
199,40,6626,2,0,P|126:39|126:111,1,160,0|8,0:0|0:0,0:0:0:0:
187,172,7549,1,8,0:0:0:0:
124,234,7857,6,0,B|106:237|95:244|95:244|55:228|4:234,2,120,0|0|8,0:0|0:0|0:0,0:0:0:0:
186,296,9087,2,0,P|258:296|338:256,1,160,0|8,0:0|0:0,0:0:0:0:
398,195,10010,1,0,0:0:0:0:
460,132,10318,6,0,P|460:76|372:36,1,160,4|8,0:0|0:0,0:0:0:0:
199,35,11549,2,0,P|126:57|114:132,1,160,0|8,0:0|0:0,0:0:0:0:
176,193,12472,1,8,0:0:0:0:
228,264,12780,6,0,P|165:279|115:256,2,120,0|0|8,0:0|0:0|0:0,0:0:0:0:
304,216,14010,2,0,P|338:137|298:65,1,160,0|8,0:0|0:0,0:0:0:0:
224,72,14933,2,0,L|144:72,1,80,0|4,0:0|0:0,0:0:0:0:
352,184,17703,6,0,P|320:240|256:240,1,120,0|8,0:0|0:0,0:0:0:0:
160,176,18626,2,0,P|128:224|144:280,1,120,0|8,0:0|0:0,0:0:0:0:
248,360,19549,1,4,0:0:0:0:
408,280,20164,6,0,P|440:200|408:128,1,160,4|0,0:0|0:0,0:0:0:0:
344,80,21087,1,2,0:0:0:0:
256,56,21395,2,8,P|168:56|56:152,1,240,0|2,0:0|0:0,0:0:0:0:
56,238,22626,6,0,P|56:310|136:310,1,160
216,302,23549,1,2,0:0:0:0:
304,316,23857,2,0,P|421:308|464:193,1,240,0|2,0:0|0:0,0:0:0:0:
466,118,25087,6,0,P|453:41|384:40,1,160,4|0,0:0|0:0,0:0:0:0:
295,40,26010,1,2,0:0:0:0:
206,40,26318,2,0,B|162:33|124:40,1,80,0|2,0:0|0:0,0:0:0:0:
38,39,26933,2,0,P|30:87|30:127,1,80,0|2,0:0|0:0,0:0:0:0:
29,206,27549,5,0,0:0:0:0:
117,206,27857,2,0,P|165:198|245:222,1,120,2|0,0:0|0:0,0:0:0:0:
295,277,28626,2,0,P|257:308|217:308,2,80
388,183,29703,1,4,0:0:0:0:
388,95,30010,6,4,P|356:63|308:63,1,80,4|8,0:0|0:0,0:0:0:0:
260,121,30626,2,0,P|221:113|195:84,1,80,0|8,0:0|0:0,0:0:0:0:
132,21,31241,2,0,P|60:45|52:133,1,160
108,182,32164,1,8,0:0:0:0:
48,244,32472,6,0,P|88:268|136:260,1,80,0|8,0:0|0:0,0:0:0:0:
192,216,33087,2,0,P|231:216|264:238,1,80,0|8,0:0|0:0,0:0:0:0:
320,304,33703,2,0,P|428:305|428:193,1,240,0|8,0:0|0:0,0:0:0:0:
369,134,34933,5,0,0:0:0:0:
306,71,35241,2,0,P|253:52|229:52,1,80,8|0,0:0|0:0,0:0:0:0:
141,51,35857,1,8,0:0:0:0:
52,51,36165,2,0,P|44:89|60:126,1,80,8|8,0:0|0:0,0:0:0:0:
138,165,36780,2,0,P|151:202|142:240,1,80,8|8,0:0|0:0,0:0:0:0:
79,302,37395,6,0,P|250:349|386:301,1,320,0|8,0:0|0:0,0:0:0:0:
505,180,39241,1,0,0:0:0:0:
380,55,39857,6,0,P|289:29|221:55,1,160,4|8,0:0|0:0,0:0:0:0:
141,49,40780,2,0,P|77:97|70:185,1,160,0|8,0:0|0:0,0:0:0:0:
128,234,41703,2,0,L|208:274,1,80,8|8,0:0|0:0,0:0:0:0:
280,312,42318,2,0,P|344:304|376:144,1,240,4|8,0:0|0:0,0:0:0:0:
252,39,43857,2,0,L|164:39,1,80,8|0,0:0|0:0,0:0:0:0:
83,39,44472,1,8,0:0:0:0:
83,127,44780,6,0,P|99:199|179:223,1,160,4|8,0:0|0:0,0:0:0:0:
262,224,45703,2,0,B|316:199|367:239|367:239|428:288|497:240,1,240,0|8,0:0|0:0,0:0:0:0:
431,178,46933,1,0,0:0:0:0:
368,115,47241,2,0,P|304:112|248:120,2,120,4|0|8,0:0|0:0|0:0,0:0:0:0:
243,239,48780,1,8,0:0:0:0:
243,326,49087,6,0,L|323:326,1,80
411,326,49703,2,0,P|464:312|496:208,1,160,0|8,0:0|0:0,0:0:0:0:
375,96,50933,2,0,P|331:62|216:64,1,160,0|8,0:0|0:0,0:0:0:0:
256,192,52164,12,0,53395,0:0:0:0:
344,160,54626,6,0,P|352:112|328:80,1,80,4|8,0:0|0:0,0:0:0:0:
274,24,55241,2,0,P|242:24|194:56,1,80,8|8,0:0|0:0,0:0:0:0:
138,109,55857,2,0,P|120:152|130:197,1,80,8|8,0:0|0:0,0:0:0:0:
186,246,56472,1,8,0:0:0:0:
328,352,57087,6,0,P|384:352|418:334,1,80,8|8,0:0|0:0,0:0:0:0:
467,280,57703,2,0,P|482:230|467:192,1,80,0|8,0:0|0:0,0:0:0:0:
412,142,58318,2,0,L|352:80,1,80,0|8,0:0|0:0,0:0:0:0:
280,48,58933,2,0,L|192:48,1,80,0|8,0:0|0:0,0:0:0:0:
111,48,59549,6,0,P|98:90|114:130,1,80,4|8,0:0|0:0,0:0:0:0:
171,185,60164,2,0,P|208:192|240:232,1,80,8|8,0:0|0:0,0:0:0:0:
298,284,60780,2,0,P|330:308|376:320,1,80,0|8,0:0|0:0,0:0:0:0:
456,319,61395,1,8,0:0:0:0:
456,143,62010,6,0,P|488:87|464:31,2,120,0|0|8,0:0|0:0|0:0,0:0:0:0:
393,205,63241,2,0,P|352:224|321:261,1,80,0|8,0:0|0:0,0:0:0:0:
265,311,63857,2,0,L|177:310,1,80,0|8,0:0|0:0,0:0:0:0:
96,310,64472,6,0,P|80:273|80:222,1,80,4|8,0:0|0:0,0:0:0:0:
77,145,65087,2,0,P|83:105|111:62,1,80,0|8,0:0|0:0,0:0:0:0:
176,16,65703,2,0,P|251:12|347:40,1,160,0|8,0:0|0:0,0:0:0:0:
456,157,66933,6,0,P|453:197|429:237,1,80,8|8,0:0|0:0,0:0:0:0:
371,293,67549,2,0,L|285:293,1,80,8|8,0:0|0:0,0:0:0:0:
202,293,68164,2,0,P|149:293|95:200,1,160,8|8,0:0|0:0,0:0:0:0:
93,123,69087,1,0,0:0:0:0:
93,34,69395,6,0,P|140:25|173:48,1,80,4|8,0:0|0:0,0:0:0:0:
228,102,70010,2,0,P|271:115|308:102,1,80,0|8,0:0|0:0,0:0:0:0:
365,42,70626,2,0,P|423:53|437:146,1,160,8|8,0:0|0:0,0:0:0:0:
315,266,71857,6,0,P|285:282|197:274,2,120
377,203,73087,2,0,L|473:203,2,80,0|8|0,0:0|0:0|0:0,0:0:0:0:
314,140,74010,1,0,0:0:0:0:
251,77,74318,6,0,P|167:61|91:77,1,160,4|0,0:0|0:0,0:0:0:0:
94,251,75549,2,0,P|172:265|250:249,1,160,4|0,0:0|0:0,0:0:0:0:
374,124,76780,1,4,0:0:0:0:
498,248,77395,2,0,L|410:248,1,80
329,248,78010,2,4,P|248:224|169:248,1,160,4|0,0:0|0:0,0:0:0:0:
52,367,79241,6,0,P|36:335|36:287,1,80,8|8,0:0|0:0,0:0:0:0:
97,228,79857,2,0,P|96:188|79:152,1,80,8|8,0:0|0:0,0:0:0:0:
16,90,80472,2,8,P|64:50|160:42,1,160
220,103,81395,1,8,0:0:0:0:
282,165,81703,6,0,P|340:143|364:87,2,120
219,227,82933,2,0,P|187:267|203:315,1,80,8|8,0:0|0:0,0:0:0:0:
251,355,83549,2,0,P|301:364|336:327,1,80,8|0,0:0|0:0,0:0:0:0:
256,192,84164,12,0,89087,0:0:0:0:
