osu file format v4

[General]
AudioFilename: Kenna - Say Goodbye To Love.mp3
AudioLeadIn: 0
AudioHash: a8cf0732b1779b8592e044c7bc0e360f
PreviewTime: -1
Countdown: 0
SampleSet: Normal
EditorBookmarks: 128340

[Metadata]
Title:Say Goodbye To Love
Artist:Kenna
Creator:Fox
Version:Osu!

[Difficulty]
HPDrainRate:9
CircleSize:5
OverallDifficulty:8
SliderMultiplier: 1.4
SliderTickRate: 1

[Events]
//Background and Video events
0,-100000,"osubg.png"
//Break Periods
2,48915,63690
2,96915,110690
2,144915,154690
//Storyboard Layer 0 (Background)
//Storyboard Layer 1 (Failing)
//Storyboard Layer 2 (Passing)
//Storyboard Layer 3 (Foreground)
//Storyboard Sound Samples
//Background Colour Transformations
3,100,0,0,0

[TimingPoints]
840,500,4,1,0,100

[Colours]
Combo1 : 128,128,192
Combo2 : 128,0,0
Combo3 : 255,128,64
Combo4 : 58,58,58
Combo5 : 5,113,0

[HitObjects]
288,80,16590,1,0
208,80,16840,1,0
192,160,17090,2,2,B|192:160|272:112|384:192,1,140
256,208,17840,1,0
192,256,18090,2,4,B|192:256|272:304|384:224,2,140
192,192,19215,1,0
192,192,19590,1,0
256,192,19840,5,2
256,192,20340,1,6
336,192,20590,5,0
336,112,20840,1,0
256,112,21090,2,0,B|256:112|176:112,1,70
176,192,21590,2,2,B|176:192|176:272,3,70
256,256,22590,1,0
256,128,23215,1,0
256,128,23590,1,0
256,192,23840,5,2
256,192,24340,1,6
288,112,24590,6,0,B|288:112|206:106|176:192,1,140
192,256,25340,2,0,B|192:256|276:301|336:240,1,140
352,176,26090,1,2
368,96,26340,2,0,B|368:96|437:134|416:176,2,70
256,128,27215,1,0
256,128,27590,1,0
256,192,27840,5,2
256,192,28340,1,6
213,109,28590,5,0
292,108,28840,2,0,B|292:108|419:94|384:256,1,210
320,288,29840,1,4
256,240,30090,1,0
192,288,30340,1,4
128,240,30590,2,0,B|128:240|160:192,3,35
192,64,31590,5,0
176,144,31840,1,2
256,128,32090,1,0
240,208,32340,1,0
304,256,32590,1,2
304,256,32715,2,4,B|304:256|527:247|336:48,1,315
256,96,34340,1,0
256,192,34840,1,4
320,112,35340,1,0
256,80,35590,5,0
192,80,35840,2,0,B|192:80|112:112,2,70
256,80,36590,1,2
320,80,36840,2,4,B|320:80|448:160,4,140
256,112,39340,5,0
256,112,39590,1,2
256,112,39840,1,6
256,208,40340,2,2,B|256:208|480:272|32:272|272:336,2,280
256,128,42590,1,2
256,128,42840,1,2
256,128,43090,1,2
256,128,43340,1,2
256,208,43590,5,0
320,256,43840,1,0
320,176,44090,1,0
256,128,44340,1,0
192,176,44590,1,0
192,256,44840,2,2,B|192:256|91:159|208:64,1,210
256,64,45840,1,0
320,80,46090,2,6,B|320:80|421:177|304:272,1,210
256,320,47590,6,0,B|256:320|208:256|304:240,1,70
256,208,48090,2,0,B|256:208|304:144|208:128,1,70
256,80,48590,1,0
256,80,48715,1,0
192,288,64590,5,0
256,336,64840,1,0
320,288,65090,1,0
256,256,65340,2,0,B|256:256|322:224|192:201|272:112,1,140
256,64,66090,1,4
256,64,66340,1,0
256,256,67215,1,0
256,256,67590,1,0
256,192,67840,1,0
256,192,68340,1,0
209,268,68590,5,0
300,268,68840,1,0
300,128,69340,2,0,B|300:128|348:144|364:192,2,70
216,130,70090,2,0,B|216:130|168:146|152:194,2,70
256,256,71215,1,0
256,256,71590,1,0
256,192,71840,5,0
256,192,72340,1,0
256,272,72590,5,0
336,272,72840,2,0,B|336:272|384:272|384:208,1,70
384,144,73340,1,0
304,144,73590,2,2,B|304:144|304:80|208:80,3,70
189,89,74590,1,6
320,192,75215,1,0
320,192,75590,1,0
256,192,75840,1,0
256,192,76340,1,0
256,192,76840,12,0,78840
320,64,79590,1,0
336,144,79840,1,2
256,128,80090,1,0
272,208,80340,1,0
208,256,80590,1,2
208,256,80715,2,4,B|208:256|-15:247|176:48,1,315
256,80,82090,1,0
256,80,82215,1,0
256,80,82340,1,0
256,80,82465,1,0
256,192,82840,1,4
256,80,83590,5,0
320,80,83840,2,0,B|320:80|400:112,2,70
256,80,84590,1,2
192,80,84840,2,4,B|192:80|64:160,4,140
256,112,87090,1,0
256,112,87340,5,0
256,112,87590,1,2
256,112,87840,1,6
256,192,88340,2,2,B|256:192|32:256|480:256|240:320,2,280
256,128,90590,1,2
256,128,90840,1,2
256,128,91090,1,2
256,128,91340,1,2
256,208,91590,5,0
192,256,91840,1,0
192,176,92090,1,0
256,128,92340,1,0
320,176,92590,1,0
320,256,92840,2,2,B|320:256|421:159|304:64,1,210
256,64,93840,1,0
192,80,94090,2,6,B|192:80|91:177|208:272,1,210
256,320,95590,6,0,B|256:320|304:256|208:240,1,70
256,208,96090,2,0,B|256:208|208:144|304:128,1,70
256,80,96590,1,0
256,80,96715,1,0
256,320,111340,5,0
256,240,111590,1,2
256,160,111840,1,0
336,192,112090,1,4
400,240,112340,1,4
416,160,112590,2,2,B|416:160|479:48|272:48,1,210
256,48,113465,1,2
217,50,113590,2,0,B|217:50|8:61|128:176,1,210
144,160,114465,1,2
192,160,114590,2,4,B|192:160|240:240|47:215|224:320,1,210
256,320,115465,1,2
303,313,115590,2,6,B|303:313|464:217|241:232|324:117,1,210
256,96,116590,5,0
176,112,116840,2,0,B|176:112|176:176|80:240,2,140
256,144,118090,5,0
256,144,118215,1,6
256,144,118340,1,6
336,112,118840,2,0,B|336:112|336:176|432:240,2,140
256,112,120090,5,0
256,112,120215,1,6
256,112,120340,1,6
256,192,120590,12,0,122090
256,192,122340,1,0
256,192,122590,12,2,123590
256,192,123840,1,0
256,192,124090,1,0
256,192,124340,1,0
256,192,124590,12,6,126590
256,304,127590,1,0
224,224,127840,2,0,B|224:224|304:224,1,70
256,144,128340,1,0
256,64,128589,1,0
256,64,128673,1,0
320,192,129340,6,0,B|320:192|256:224|192:192,4,140
336,112,131590,6,0,B|336:112|293:75|240:80,1,70
256,160,132090,1,0
256,160,132340,1,0
272,240,132590,2,6,B|272:240|116:240|144:80,3,210
176,48,135090,1,0
256,64,135340,1,0
256,144,135590,1,0
256,224,135840,1,0
362,112,136340,2,0,B|362:112|476:400|28:400|160:96,1,560
224,112,138590,1,0
224,192,138840,2,0,B|224:192|197:267|363:256|267:148,1,140
256,112,139590,1,0
176,128,139840,1,0
192,48,140090,1,0
256,112,140340,1,0
320,48,140590,1,0
336,128,140840,2,0,B|336:128|319:240|192:256,5,140
240,144,143590,1,0
160,160,143840,1,0
112,224,144090,1,0
128,304,144340,1,0
208,304,144590,1,0
208,304,144715,1,0
224,80,155590,6,0,B|224:80|304:80,1,70
288,160,156090,2,2,B|288:160|208:160,1,70
224,240,156590,2,0,B|224:240|304:240,8,70
256,176,158840,5,0
256,176,158965,1,0
256,176,159090,1,0
320,64,159590,5,0
336,144,159840,1,2
256,128,160090,1,0
272,208,160340,1,0
240,288,160590,1,2
240,288,160715,1,4
240,288,160840,1,0
192,208,161215,1,0
144,128,161590,1,0
192,80,161840,1,0
256,80,162090,1,4
256,80,162340,1,2
320,80,162590,1,0
368,128,162840,5,0
320,208,163215,1,0
272,288,163590,1,0
272,288,163840,1,6
176,192,164340,1,6
240,96,164840,5,0
192,176,165215,1,0
144,256,165590,1,0
192,304,165840,1,0
256,304,166090,1,4
256,304,166340,1,6
320,304,166590,1,0
368,256,166840,5,0
320,176,167215,1,0
272,96,167590,1,0
272,96,167840,1,6
256,240,168340,1,6
256,192,168840,12,4,176840
