osu file format v5

[General]
AudioFilename: Final Fantasy VIII Circuit.mp3
AudioLeadIn: 1489
PreviewTime: 28004
Countdown: 0
SampleSet: Normal
StackLeniency: 0.7
Mode: 0
LetterboxInBreaks: 1

[Editor]
Bookmarks: 12320,13715,34994,38483,83483
DistanceSpacing: 0.800000011920929
BeatDivisor: 4
GridSize: 8

[Metadata]
Title:Final Fantasy VIII Circuit
Artist:Kenjo Ito
Creator:alvisto
Version:Normal
Source:Chocobo Racing
Tags:Chocobo Racing Final Fantasy 8 VIII Circuit Kenjo Ito

[Difficulty]
HPDrainRate:4
CircleSize:3
OverallDifficulty:4
SliderMultiplier:1.3
SliderTickRate:2

[Events]
//Background and Video events
0,0,"Background.jpg"
//Break Periods
//Storyboard Layer 0 (Background)
//Storyboard Layer 1 (Fail)
//Storyboard Layer 2 (Pass)
//Storyboard Layer 3 (Foreground)
//Storyboard Sound Samples
//Background Colour Transformations
3,100,163,162,255

[TimingPoints]
117,348.837209302326,5,1,0,51,1,0
12307,-100,5,1,0,51,0,1
13702,-100,5,1,0,51,0,0

[Colours]
Combo1 : 223,223,0
Combo2 : 4,208,4
Combo3 : 95,95,252
Combo4 : 251,77,77

[HitObjects]
104,128,117,1,0
256,192,640,1,0
120,288,1163,1,0
120,288,1512,1,8
216,352,1861,5,0
256,192,2384,1,0
368,312,2907,1,0
368,312,3256,1,8
424,216,3605,5,0
256,192,4128,1,0
360,64,4651,1,0
360,64,5000,1,8
256,24,5349,5,0
256,192,5872,1,0
112,104,6396,1,0
112,104,6744,1,8
112,216,7093,5,0
200,144,7442,1,0
200,144,7616,1,8
280,216,7965,1,0
280,216,8140,1,8
368,144,8489,1,8
456,216,8837,5,0
368,280,9186,1,0
368,280,9361,1,8
280,216,9710,1,0
280,216,9884,1,8
200,288,10233,1,8
112,216,10582,5,0
200,144,10930,1,0
200,144,11105,1,8
280,216,11454,1,0
280,216,11628,1,8
368,144,11977,1,8
447,211,12326,6,0,B|446:136,8,65
344,264,14070,5,0
248,144,14593,1,8
152,16,15117,2,8,B|112:32|64:72|64:120,1,130,0|8
64,160,15640,1,0
64,208,15814,2,8,B|64:248|64:288,1,65
112,272,16163,2,8,B|160:272|192:272,1,65
232,272,16512,2,8,B|232:304|264:328,1,65
304,352,16861,2,8,B|384:352,2,65
288,248,17558,6,0,B|304:208|320:168|352:136|392:112|432:112,1,195,0|8
512,64,18430,1,8
468,92,18605,2,0,B|476:92|431:105|386:119|357:141|339:168,1,130,0|8
269,210,19303,2,8,B|228:243|199:280|169:307|144:333|117:350|53:364,2,260,8|0|8
362,256,21047,5,0
463,279,21396,2,8,B|503:241|466:194,1,65
402,152,21919,2,8,B|368:130|327:145,1,65
248,195,22442,2,8,B|226:235|261:277,1,65
309,341,22965,2,8,B|340:359|400:352,1,65
348,252,23489,1,0
348,252,23837,1,8
347,253,24186,1,8
320,152,24535,5,0
456,80,25058,1,8
320,152,25582,1,0
240,80,25930,1,10
320,152,26279,5,0
184,224,26803,1,8
320,152,27326,1,0
392,224,27675,1,10
432,128,28023,5,0
304,32,28547,1,8
144,32,29070,2,0,B|96:16|48:32|32:96,1,130,0|8
32,184,29768,2,0,B|24:240|56:264,1,65,0|8
64,288,30116,2,0,B|96:328|136:336,1,65,0|8
160,344,30465,2,0,B|200:360|240:352,1,65,0|8
275,355,30814,2,0,B|331:347|355:323,1,65,0|8
336,336,31163,1,0
411,264,31512,6,0,B|451:232|467:192|459:144|443:112|395:96,1,195,0|8
300,103,32384,2,0,L|234:103|206:103,1,65,0|8
130,103,32907,1,0
130,103,33256,2,0,B|92:141|69:182|76:220|115:259|176:287|170:280|280:280|306:263|330:246|341:228|354:208|360:173|349:131|289:97,1,520,8|0
192,104,35000,5,8
192,104,35349,1,0
192,208,35698,1,8
192,312,36047,1,0
192,312,36396,1,0
296,312,36744,5,8
296,312,37093,1,0
296,208,37442,1,8
296,104,37791,1,0
296,104,38140,1,8
192,80,38489,5,0
80,184,39012,1,8
192,288,39535,1,0
192,184,39884,1,10
192,80,40233,5,0
312,184,40756,1,8
192,288,41279,1,0
192,288,41628,1,10
296,304,41977,5,0
384,352,42326,1,8
384,352,42500,1,8
456,288,42849,1,0
472,240,43023,1,2
480,136,43372,1,0
384,176,43721,5,0
328,88,44070,1,8
328,88,44244,1,8
232,48,44593,1,0
232,48,44768,1,2
128,40,45116,1,0
176,128,45465,5,0
88,184,45814,1,8
88,184,45989,1,8
40,272,46337,1,0
40,272,46512,1,2
104,352,46861,1,0
176,272,47210,5,0
224,176,47558,1,8
256,136,47733,1,8
336,72,48082,1,0
384,56,48256,1,2
488,56,48605,1,0
440,152,48954,1,0
256,192,49303,12,0,50349
136,88,50698,5,0
200,168,51047,1,8
240,136,51221,1,8
256,240,51570,1,0
299,211,51744,1,2
312,313,52093,1,0
395,250,52442,5,0
373,148,52791,2,8,L|317:148|289:147,1,65,8|8
412,149,53314,2,0,L|492:149|501:148,1,65,0|2
394,85,53837,1,0
399,188,54186,5,0
377,289,54535,2,8,L|305:289,1,65,8|8
416,289,55058,2,0,L|454:289|496:288,1,65,0|2
398,351,55582,1,0
294,354,55930,5,8
216,280,56279,1,8
216,280,56454,1,0
216,280,56628,1,8
128,328,56977,1,2
144,224,57326,1,0
216,152,57675,1,8
256,192,58023,12,8,59070
96,87,59419,5,8
157,170,59768,1,8
157,170,59942,1,0
157,170,60116,1,8
248,120,60465,1,2
272,216,60814,1,0
192,288,61163,1,8
256,192,61512,12,0,62558
96,112,62907,5,8
152,200,63256,1,0
152,200,63430,1,8
64,256,63779,1,0
64,256,63954,1,8
152,200,64303,1,8
240,144,64651,5,0
312,216,65000,1,0
312,216,65175,1,8
384,296,65523,1,0
384,296,65698,1,4
312,216,66047,1,4
392,152,66396,5,8
312,80,66744,1,0
312,80,66919,1,8
392,152,67268,1,0
392,152,67442,1,8
448,240,67791,1,8
416,336,68140,5,0
320,288,68489,1,0
288,328,68663,1,8
184,328,69012,1,0
136,352,69186,1,4
72,264,69535,1,4
112,168,69884,5,8
176,88,70233,1,8
176,88,70407,1,8
272,48,70756,1,0
272,48,70930,1,2
320,32,71105,2,0,B|396:14,2,65,0|8|0
272,48,71628,5,8
224,136,71977,1,8
224,136,72151,1,8
192,232,72500,1,0
192,232,72675,1,2
168,272,72849,2,0,B|152:304|96:296,2,65,0|8|0
192,232,73372,5,8
280,184,73721,1,8
280,184,73896,1,8
384,168,74244,1,0
384,168,74419,1,2
424,144,74593,2,0,B|448:136|464:120|464:104|464:80,2,65,0|8|0
384,168,75117,5,8
320,248,75465,1,8
320,248,75640,1,8
232,304,75989,1,0
184,320,76163,1,10
128,320,76337,1,8
80,296,76512,1,8
48,248,76686,1,0
48,192,76861,5,8
128,120,77210,1,0
128,120,77384,1,8
200,192,77733,1,0
200,192,77907,1,8
304,192,78256,1,8
408,192,78605,5,8
352,104,78954,1,0
352,104,79128,1,8
304,192,79477,1,0
304,192,79651,1,4
200,192,80000,1,4
96,192,80349,5,8
144,104,80698,2,0,L|168:80|200:112,1,65,0|8
245,190,81221,2,0,L|269:214|301:182,1,65,0|8
349,105,81744,1,8
256,192,82093,12,4,83837
