osu file format v5

[General]
AudioFilename: Final Fantasy VIII Circuit.mp3
AudioLeadIn: 1489
PreviewTime: 28004
Countdown: 0
SampleSet: Normal
StackLeniency: 0.7
Mode: 0
LetterboxInBreaks: 1

[Editor]
Bookmarks: 12320,13715,33250,34646,34994,38483,77727,77901,78250,78599,78948,79122,79471,79646,79994,80343,80692,80867,81215,81390,81739,83483
DistanceSpacing: 0.800000011920929
BeatDivisor: 4
GridSize: 8

[Metadata]
Title:Final Fantasy VIII Circuit
Artist:Kenjo Ito
Creator:alvisto
Version:Maniac
Source:Chocobo Racing
Tags:Chocobo Racing Final Fantasy 8 VIII Circuit Kenjo Ito

[Difficulty]
HPDrainRate:5
CircleSize:5
OverallDifficulty:8
SliderMultiplier:2
SliderTickRate:2

[Events]
//Background and Video events
0,0,"Background.jpg"
//Break Periods
//Storyboard Layer 0 (Background)
//Storyboard Layer 1 (Fail)
//Storyboard Layer 2 (Pass)
//Storyboard Layer 3 (Foreground)
//Storyboard Sound Samples
//Background Colour Transformations
3,100,163,162,255

[TimingPoints]
117,348.837209302326,5,1,0,51,1,0
12307,-100,5,1,0,51,0,1
13702,-100,5,1,0,51,0,0

[Colours]
Combo1 : 255,139,83
Combo2 : 4,208,4
Combo3 : 95,95,252
Combo4 : 251,77,77

[HitObjects]
72,64,117,1,0
111,70,204,1,0
136,100,291,1,0
210,241,640,1,0
232,272,727,1,0
270,282,814,1,0
429,275,1163,1,0
458,247,1250,1,0
458,206,1337,1,8
429,274,1512,1,8
278,337,1861,5,0
242,356,1948,1,0
206,361,2035,1,0
54,310,2384,1,0
30,273,2471,1,0
27,232,2558,1,0
42,73,2907,1,0
70,44,2994,1,0
108,34,3082,1,8
42,73,3256,1,8
60,232,3605,5,0
77,267,3692,1,0
109,290,3779,1,0
266,316,4128,1,0
305,310,4215,1,0
339,289,4303,1,0
448,172,4651,1,0
465,136,4739,1,0
471,96,4826,1,8
447,172,5000,1,8
307,249,5349,5,0
271,267,5436,1,0
231,271,5523,1,0
75,233,5872,1,0
52,199,5960,1,0
47,159,6047,1,0
177,66,6396,1,0
216,48,6483,1,0
256,40,6570,1,8
177,68,6744,1,8
138,222,7093,5,0
176,151,7268,1,0
208,174,7355,1,0
226,209,7442,1,0
210,287,7616,1,8
142,330,7791,1,0
102,324,7878,1,0
72,296,7965,1,0
50,219,8140,1,8
104,68,8489,1,8
252,126,8837,5,0
258,209,9012,1,0
294,192,9099,1,0
321,162,9186,1,0
325,82,9361,1,8
262,32,9535,1,0
225,15,9622,1,0
185,21,9710,1,0
136,83,9884,1,8
204,227,10233,1,8
362,252,10582,5,0
381,174,10756,1,0
418,188,10843,1,0
434,224,10930,1,0
424,303,11105,1,8
355,345,11279,1,0
316,333,11367,1,0
290,302,11454,1,0
294,222,11628,1,8
379,86,11977,1,8
218,87,12326,5,0
197,52,12413,1,0
158,46,12500,1,0
128,73,12587,1,0
118,111,12675,1,0
139,144,12762,1,0
172,166,12849,1,0
204,189,12936,1,0
230,218,13023,1,0
220,256,13111,1,0
187,279,13198,1,0
147,286,13285,1,0
113,263,13372,1,0
104,223,13460,1,0
119,186,13547,1,0
147,158,13634,1,0
174,129,13721,1,0
328,24,14070,6,0,B|399:23|450:80|428:132|384:149,1,200,0|8
308,174,14593,2,0,B|240:193|203:244|212:328|269:329,1,200,0|8
321,356,15117,2,0,B|372:378|435:332|449:280|423:222,1,200,0|8
406,158,15640,1,0
364,226,15814,6,0,B|329:272|294:316,1,100,0|8
239,354,16163,2,0,B|202:364|172:371|138:352,1,100,0|8
86,295,16512,2,0,B|68:269|56:241|58:198,1,100,0|8
64,121,16861,1,0
78,83,16948,1,0
104,52,17035,1,0
178,23,17210,1,8
257,12,17384,1,0
336,23,17558,6,0,B|388:30|427:87|425:142|384:189|328:220|270:225,1,300
120,240,18430,1,0
120,240,18605,1,8
208,104,18954,1,8
280,72,19128,1,0
320,144,19303,1,8
384,288,19651,1,0
384,288,19826,1,8
224,304,20175,5,0
144,304,20349,2,0,B|88:304,4,50,8|0|0|0|8
264,240,21047,5,0
328,280,21221,1,8
400,240,21396,2,0,B|424:280|400:328|352:336,1,100,0|8
216,344,21919,1,8
144,304,22093,1,0
128,224,22268,1,8
128,144,22442,2,0,B|128:112|144:71|208:88,1,100,0|8
347,113,22965,5,8
390,179,23140,1,0
454,132,23314,1,8
492,202,23489,2,0,B|490:235|468:260|416:272,1,100,0|8
347,274,23837,2,0,B|296:271|240:302,1,100,0|8
176,326,24186,1,0
138,339,24273,1,0
98,335,24361,1,8
41,278,24535,5,8
110,133,24884,1,0
137,104,24971,1,0
171,83,25058,1,8
106,229,25407,1,0
120,191,25494,1,0
145,160,25582,1,2
180,142,25669,1,0
219,134,25756,1,8
297,148,25930,1,8
354,0,26279,5,8
436,136,26628,1,0
447,174,26715,1,0
439,213,26803,1,8
363,80,27151,1,0
380,115,27239,1,0
390,153,27326,1,2
390,192,27413,1,0
375,229,27500,1,8
327,293,27675,1,8
173,338,28023,5,0
123,185,28372,2,0,B|95:135|136:102|172:108,1,100,0|8
306,56,28896,1,0
382,78,29070,2,0,B|419:95|456:160,2,100,0|8|0
304,56,29593,1,8
224,56,29768,1,0
152,88,29942,1,8
152,88,30116,1,0
96,144,30291,1,8
96,144,30465,1,0
72,224,30640,1,8
96,296,30814,1,0
96,296,30901,1,0
96,296,30989,1,8
128,368,31163,1,0
240,256,31512,5,0
272,328,31686,1,0
344,296,31861,1,0
381,364,32035,1,8
458,223,32384,2,0,B|460:186|444:156|387:170,1,100
237,190,32907,1,8
256,192,33256,12,4,34651
376,104,35000,5,0
435,158,35175,1,0
370,205,35349,2,0,B|299:215|290:144,1,100,0|8
291,80,35698,1,0
342,22,35872,1,0
421,25,36047,2,8,B|461:25|476:63|466:104,1,100,0|8
427,167,36396,1,0
399,196,36483,1,0
360,207,36570,1,8
279,208,36744,5,8
200,208,36919,1,0
200,208,37093,2,0,B|149:208|89:208,1,100,0|8
16,208,37442,1,0
16,208,37616,1,8
16,208,37791,2,8,B|40:136|96:144|128:168,1,100,0|8
168,152,38140,1,0
208,152,38227,1,0
248,152,38314,1,8
320,120,38489,5,0
472,88,38837,1,0
496,120,38925,1,0
480,152,39012,1,8
388,232,39361,1,0
352,248,39448,1,0
315,235,39535,1,0
294,200,39622,1,0
300,160,39710,1,8
328,88,39884,1,8
168,56,40233,5,0
56,112,40582,1,0
40,152,40669,1,0
48,192,40756,1,8
112,336,41105,1,0
152,352,41192,1,0
192,360,41279,1,0
232,352,41366,1,0
264,328,41454,1,8
304,256,41628,1,8
328,96,41977,5,0
488,120,42326,1,8
472,160,42413,1,0
448,192,42500,1,8
304,256,42849,1,0
304,256,43023,1,2
144,264,43372,1,8
288,328,43721,5,8
440,288,44070,1,8
464,256,44157,1,0
464,216,44244,1,8
424,64,44593,1,0
424,64,44768,1,2
264,48,45116,1,8
408,120,45465,5,8
248,96,45814,1,8
208,104,45901,1,0
176,120,45989,1,8
64,232,46337,1,0
64,232,46512,1,2
112,296,46686,1,0
40,336,46861,1,8
200,360,47210,5,8
352,328,47558,1,8
384,312,47646,1,0
408,280,47733,1,8
440,120,48082,1,0
440,120,48256,1,2
376,72,48430,1,0
440,32,48605,1,8
280,64,48954,5,0
128,120,49303,1,8
128,120,49477,1,8
24,240,49826,1,0
40,280,49913,1,0
64,312,50000,1,2
144,336,50175,1,0
144,336,50349,1,8
296,288,50698,5,0
424,192,51047,1,8
424,192,51221,1,8
440,32,51570,1,0
400,48,51657,1,0
368,72,51744,1,2
312,128,51919,1,0
312,128,52093,1,8
168,192,52442,5,0
168,32,52791,2,8,B|208:72|176:136,1,100
337,160,53314,2,8,B|295:209|239:185,1,100,0|2
168,192,53663,5,0
168,192,53837,1,8
168,192,54012,1,0
168,192,54186,1,8
152,352,54535,2,8,B|112:304|160:248,1,100
8,232,55058,2,8,B|40:176|112:200,1,100,8|2
168,192,55407,1,0
248,208,55582,1,8
400,256,55930,5,8
400,95,56279,1,8
343,151,56454,1,8
400,205,56628,1,0
468,246,56803,2,0,B|468:318|401:317,1,100,0|2
414,317,57151,2,8,B|371:321|343:303|332:272|341:248,1,100,0|8
325,190,57500,1,0
314,110,57675,5,8
157,145,58023,1,8
197,76,58198,1,8
262,123,58372,1,0
321,175,58547,2,0,B|384:163|385:102,1,100,0|2
385,108,58896,2,8,B|368:25|282:49,1,100,0|8
242,64,59244,1,0
170,99,59419,5,8
103,244,59768,1,8
179,221,59942,1,8
148,146,60116,1,0
106,78,60291,2,0,B|121:15|214:30,1,100,0|2
182,28,60640,2,8,B|244:41|240:108,1,100,0|8
247,177,60989,1,0
247,257,61163,5,8
384,338,61512,1,8
456,304,61686,1,8
405,242,61861,1,0
459,184,62035,1,0
383,157,62210,1,2
436,97,62384,1,0
359,73,62558,1,8
202,39,62907,5,0
104,160,63256,1,0
104,160,63430,1,10
72,320,63779,1,0
72,320,63954,1,10
72,320,64128,1,8
72,320,64303,1,10
232,344,64651,5,8
368,256,65000,1,0
368,256,65087,1,0
368,256,65175,1,8
408,104,65523,1,0
344,56,65698,1,12
344,56,65785,1,0
344,56,65872,1,0
344,56,65960,1,0
344,56,66047,1,12
200,128,66396,5,8
104,256,66744,1,0
104,256,66919,1,10
256,296,67268,1,0
256,296,67442,1,2
256,296,67616,1,8
256,296,67791,1,10
392,208,68140,5,8
392,208,68489,1,0
392,208,68576,1,0
392,208,68663,1,8
256,192,68837,12,6,69535
48,144,69884,5,8
144,304,70233,1,0
184,320,70320,1,0
232,328,70407,1,8
96,200,70756,1,0
120,240,70843,1,0
152,264,70930,1,10
240,272,71105,1,8
328,272,71279,1,8
416,272,71454,1,0
488,328,71628,5,8
448,144,71977,1,0
416,104,72064,1,0
376,72,72151,1,8
472,224,72500,1,0
440,184,72587,1,0
400,152,72675,1,10
320,104,72849,1,8
224,88,73023,1,8
128,80,73198,1,0
40,96,73372,5,8
64,280,73721,1,0
88,320,73808,1,0
128,344,73896,1,8
40,184,74244,1,0
64,224,74332,1,0
96,256,74419,1,10
168,304,74593,1,8
256,312,74768,1,8
344,312,74942,1,0
432,312,75117,5,8
296,192,75465,1,0
264,152,75553,1,0
256,104,75640,1,8
368,248,75989,1,0
336,208,76076,1,0
320,160,76163,1,10
312,64,76337,1,8
312,64,76512,1,8
312,64,76686,1,0
216,64,76861,5,0
176,216,77210,1,0
256,216,77384,1,8
136,200,77733,1,2
296,200,77907,1,8
216,224,78256,1,10
216,64,78605,5,0
168,216,78954,1,0
264,216,79128,1,8
120,176,79477,1,0
312,176,79651,1,4
216,248,80000,1,4
216,64,80349,5,0
144,200,80698,1,0
288,200,80872,1,8
104,152,81221,1,2
328,152,81396,1,8
216,264,81744,1,10
256,192,82093,12,4,83837
