osu file format v5

[General]
AudioFilename: Final Fantasy VIII Circuit.mp3
AudioLeadIn: 1489
PreviewTime: 28004
Countdown: 0
SampleSet: Normal
StackLeniency: 1
Mode: 0
LetterboxInBreaks: 1

[Editor]
Bookmarks: 12320,13715,33250,34646,34994,38483,77727,77901,78250,78599,78948,79122,79471,79646,79994,80343,80692,80867,81215,81390,81739,83483
DistanceSpacing: 0.800000011920929
BeatDivisor: 4
GridSize: 8

[Metadata]
Title:Final Fantasy VIII Circuit
Artist:Kenjo Ito
Creator:alvisto
Version:Insane
Source:Chocobo Racing
Tags:Chocobo Racing Final Fantasy 8 VIII Circuit Kenjo Ito

[Difficulty]
HPDrainRate:6
CircleSize:5
OverallDifficulty:6
SliderMultiplier:1.9
SliderTickRate:2

[Events]
//Background and Video events
0,0,"Background.jpg"
//Break Periods
//Storyboard Layer 0 (Background)
//Storyboard Layer 1 (Fail)
//Storyboard Layer 2 (Pass)
//Storyboard Layer 3 (Foreground)
//Storyboard Sound Samples
//Background Colour Transformations
3,100,163,162,255

[TimingPoints]
117,348.837209302326,5,1,0,61,1,0
12307,-100,5,1,0,61,0,1
13702,-100,5,1,0,61,0,0

[Colours]
Combo1 : 223,223,0
Combo2 : 4,208,4
Combo3 : 95,95,252
Combo4 : 251,77,77

[HitObjects]
56,128,117,2,0,B|56:48|136:48,1,95,0|8
176,48,465,1,0
248,48,640,2,0,B|288:64|272:120|352:112,1,95,0|8
384,144,989,1,0
320,184,1163,1,0
384,232,1337,1,8
320,272,1512,1,8
176,328,1861,6,0,B|104:320|88:256,1,95,0|8
72,208,2210,1,0
64,128,2384,2,0,B|64:64|128:56,1,95,0|8
192,40,2733,1,0
208,112,2907,1,0
280,96,3082,1,8
296,168,3256,1,8
448,144,3605,6,0,B|480:200|440:240,1,95,0|8
376,264,3954,1,0
304,296,4128,2,0,B|256:328|192:320,1,95,0|8
136,312,4477,1,0
192,264,4651,1,0
120,240,4826,1,8
176,192,5000,1,8
40,128,5349,6,0,B|24:64|80:48|112:56,1,95,0|8
152,32,5698,1,0
224,24,5872,2,0,B|288:16|320:96|320:96,1,95,0|8
328,138,6221,1,0
251,138,6396,1,0
286,204,6570,1,8
210,204,6744,1,8
64,272,7093,5,8
136,296,7268,2,0,B|160:320|224:256|256:296,1,95
304,296,7616,1,8
376,320,7791,2,0,B|448:336|432:264|448:232,1,95
448,192,8140,1,8
448,192,8489,1,8
352,72,8837,5,8
288,24,9012,2,0,B|232:24|200:64|200:112,1,95
168,136,9361,1,8
136,200,9535,2,0,B|104:232|56:240|72:280,1,95
64,336,9884,1,8
64,336,10233,1,8
216,352,10582,5,8
288,344,10756,2,0,B|336:336|344:304|376:288,1,95
424,240,11105,1,8
464,176,11279,2,0,B|480:144|480:144|496:104|488:72|488:72|488:72,1,95
464,16,11628,1,8
464,16,11977,1,8
328,80,12326,6,0,C|296:112|264:144|248:160,1,95,8|0
256,224,12675,2,0,C|224:192|192:160|176:144,1,95,8|0
261,148,13023,2,0,C|293:180|325:212|341:228,1,95,8|0
256,224,13372,2,0,C|224:256|192:288|176:304,1,95,8|0
132,342,13721,1,8
46,216,14070,6,0,B|24:176|32:120,2,95,8|0|0
65,288,14593,2,0,B|75:343|144:354,1,95,8|0
203,360,14942,1,8
279,354,15117,2,0,B|329:357|370:322,2,95,0|0|8
202,360,15640,1,0
203,284,15814,6,0,B|203:250|204:165,2,95,8|0|8
203,284,16337,2,0,B|174:256|128:210,2,95,0|8|0
203,284,16861,2,0,B|241:246|274:213,1,95,8|0
296,188,17122,1,0
320,159,17210,1,8
366,98,17384,1,0
410,36,17558,6,0,B|345:2|315:36,2,95
446,102,18082,1,0
445,181,18256,1,0
427,255,18430,2,0,B|412:303|371:335|329:314,1,95,8|0
290,337,18779,1,8
214,340,18954,2,8,B|174:345|145:337|120:300,1,95,8|0
92,243,19303,1,8
69,170,19477,5,0
56,94,19651,2,8,B|47:50|73:23|119:31,2,95,8|8|0
69,169,20175,1,8
91,241,20349,1,8
110,273,20436,1,0
134,303,20523,1,0
162,327,20611,1,0
197,340,20698,1,8
337,300,21047,5,8
337,300,21221,1,8
337,300,21396,2,0,B|337:252|337:199,1,95,0|8
338,205,21919,1,8
338,129,22093,1,8
338,129,22268,1,8
338,129,22442,2,0,B|325:56|257:68,1,95,0|8
206,91,22965,5,8
131,77,23140,1,0
112,150,23314,1,8
37,135,23489,2,0,B|37:175|37:221|38:247,1,95,0|8
43,305,23837,2,0,B|36:349|74:364|121:353,1,95,0|8
174,321,24186,1,0
204,299,24273,1,0
230,271,24361,1,8
281,215,24535,5,0
423,161,24884,1,0
348,144,25058,1,10
199,114,25407,1,8
173,42,25582,1,8
124,100,25756,1,8
145,173,25930,1,10
268,84,26279,5,0
415,120,26628,1,0
462,179,26803,1,10
389,311,27151,1,8
334,258,27326,1,8
407,239,27500,1,8
465,288,27675,1,14
362,159,28023,5,8
296,200,28198,1,8
273,129,28372,2,0,B|263:84|237:54|197:58,2,95,0|8|0
296,200,28896,1,8
323,271,29070,2,8,B|340:315|369:333|397:333,2,95,8|0|8
300,198,29593,5,0
300,121,29768,1,8
301,45,29942,2,0,L|245:44|194:90,1,95,8|0
163,125,30291,1,8
105,175,30465,2,0,B|126:203|156:224|189:228,2,95,0|8|0
89,144,30901,1,0
76,108,30989,1,0
76,32,31163,1,4
215,93,31512,5,0
242,164,31686,1,0
315,143,31861,1,0
337,215,32035,1,8
437,111,32384,2,0,B|454:137|456:164|445:188|412:193,1,95,0|8
338,216,32733,1,0
266,239,32907,1,8
256,192,33256,12,4,34651
431,36,35000,5,8
476,97,35175,1,8
413,140,35349,1,0
349,181,35523,1,0
422,199,35698,1,0
495,219,35872,1,8
438,269,36047,1,0
383,321,36221,1,0
312,348,36396,1,8
274,354,36483,1,0
236,350,36570,1,8
164,323,36744,5,8
123,258,36919,1,8
105,183,37093,1,0
143,117,37268,1,8
218,107,37442,1,0
247,177,37616,1,8
212,244,37791,1,0
153,292,37965,1,8
78,306,38140,1,8
45,286,38227,1,0
28,251,38314,1,8
25,174,38489,5,0
168,128,38837,1,0
240,102,39012,1,10
96,152,39361,1,0
168,128,39535,1,2
239,103,39710,1,8
310,78,39884,1,10
104,48,40233,5,0
200,160,40582,1,0
248,216,40756,1,10
152,104,41105,1,0
200,160,41279,1,2
248,216,41454,1,8
296,272,41628,1,10
434,335,41977,5,8
434,164,42326,1,8
434,164,42500,2,0,B|392:123|348:104|299:120|252:181,1,190,8|0
269,162,43023,2,0,B|220:201|156:214|117:189|85:151,1,190,2|8
35,24,43721,5,8
95,163,44070,1,8
95,163,44244,2,0,B|90:219|140:273|200:274|268:236,1,190,8|0
227,253,44768,2,0,B|269:218|324:196|390:215|434:245,1,190,2|8
488,356,45465,5,8
405,228,45814,2,8,B|362:171|423:127,2,95,8|8|0
446,292,46337,1,0
400,352,46512,1,2
351,293,46686,1,0
303,351,46861,1,8
228,337,47035,1,0
155,312,47210,5,8
82,181,47558,2,8,B|54:132|74:72,2,95,8|8|0
111,251,48082,1,0
154,313,48256,1,2
219,349,48430,1,0
294,358,48605,1,8
363,326,48779,1,0
419,272,48954,5,8
476,131,49303,2,8,B|480:94|456:71|399:75,1,95,8|8
265,90,49826,1,0
228,100,49913,1,0
207,128,50000,1,2
166,192,50175,1,0
125,255,50349,1,8
174,313,50523,1,0
235,355,50698,5,8
160,222,51047,1,8
160,222,51221,1,8
84,89,51570,1,0
84,89,51657,1,0
84,89,51744,1,2
50,157,51919,1,0
125,151,52093,1,8
201,145,52268,1,0
272,144,52442,5,8
272,144,52791,2,8,B|330:182|272:232,1,95
272,144,53314,2,8,B|234:202|184:144,1,95,0|2
272,144,53837,5,8
272,144,54186,1,8
272,144,54535,2,8,B|214:106|272:56,1,95
272,144,55058,2,8,B|310:86|360:144,1,95,0|2
272,144,55582,1,8
410,207,55930,5,8
280,288,56279,1,8
280,288,56454,1,8
280,288,56628,1,0
248,216,56803,2,0,B|320:192|352:248,1,95,0|2
360,296,57151,2,8,B|360:360|290:373,1,95,0|8
233,362,57500,5,0
186,301,57675,1,8
174,148,58023,1,8
174,148,58198,1,8
174,148,58372,1,0
244,120,58547,2,0,B|281:184|197:222,1,95,0|2
154,222,58896,2,8,B|89:206|90:142,1,95,0|8
116,88,59244,5,0
182,52,59419,1,8
328,112,59768,1,8
328,112,59942,1,8
328,112,60116,1,0
284,174,60291,2,8,B|227:137|255:72,1,95,0|2
290,34,60640,2,8,B|367:9|407:81,1,95,0|8
409,116,60989,5,0
378,185,61163,1,8
256,192,61512,12,8,62558
106,109,62907,5,8
184,240,63256,1,0
184,240,63430,1,10
311,322,63779,1,0
381,276,63954,1,10
402,203,64128,1,0
356,142,64303,1,10
240,43,64651,5,8
112,120,65000,1,0
112,120,65175,1,10
31,238,65523,1,0
71,302,65698,1,12
141,330,65872,1,0
214,309,66047,1,12
358,262,66396,5,8
384,112,66744,1,0
384,112,66919,1,10
252,34,67268,1,0
179,13,67442,1,10
109,44,67616,1,0
76,112,67791,1,10
69,263,68140,5,8
208,328,68489,1,0
208,328,68663,1,10
256,192,68837,12,12,69535
36,40,69884,6,0,B|75:41|109:56|92:119,1,95,8|0
118,168,70233,2,0,B|121:189|132:223|158:264,1,95,8|8
197,318,70582,2,8,B|220:362|256:366|296:363,1,95,0|0
350,358,70930,2,0,B|416:351|430:275,1,95,2|0
428,227,71279,2,0,B|429:168|412:116|393:101,1,95,8|0
356,83,71628,6,0,B|314:54|256:40,1,95,8|0
297,114,71977,6,0,B|242:156|215:196,1,95,8|8
303,185,72326,6,8,B|305:236|334:296,1,95,0|0
365,211,72675,6,0,B|403:249|489:236,1,95,2|0
413,174,73023,6,0,B|466:159|495:104,1,95,8|0
410,115,73372,6,0,B|428:47|386:-11,1,95,8|0
357,81,73721,6,0,B|315:39|244:45,1,95,8|8
302,114,74070,6,0,B|240:115|223:190,1,95,0|0
306,174,74419,6,0,B|264:211|314:277,1,95,2|0
357,207,74768,6,0,B|373:256|439:277,1,95,8|0
428,195,75117,6,8,B|474:173|483:122|458:104,1,95,8|0
460,42,75465,2,0,B|428:2|375:26|371:83,1,95,8|8
329,103,75814,2,8,B|297:144|272:142|268:204,1,95,0|0
263,255,76163,2,0,B|275:311|211:329|171:291,1,95,2|0
131,310,76512,2,0,B|86:290|83:258|127:196,1,95,8|0
145,126,76861,5,8
368,72,77210,1,0
368,72,77384,1,10
328,296,77733,5,0
232,232,77907,1,2
320,160,78082,1,8
416,216,78256,1,10
216,328,78605,5,8
120,120,78954,1,0
120,120,79128,1,10
344,72,79477,5,0
328,184,79651,1,4
224,232,79826,1,0
240,120,80000,1,4
456,200,80349,5,8
272,336,80698,1,0
272,336,80872,1,10
144,144,81221,5,8
224,64,81396,1,2
328,96,81570,1,8
256,184,81744,1,10
256,192,82093,12,4,83837
