osu file format v5

[General]
AudioFilename: Final Fantasy VIII Circuit.mp3
AudioLeadIn: 1489
PreviewTime: 28004
Countdown: 0
SampleSet: Normal
StackLeniency: 0.7
Mode: 0
LetterboxInBreaks: 1

[Editor]
Bookmarks: 12320,13715,34820,34994,38483,83483
DistanceSpacing: 0.800000011920929
BeatDivisor: 4
GridSize: 8

[Metadata]
Title:Final Fantasy VIII Circuit
Artist:Kenjo Ito
Creator:alvisto
Version:Easy
Source:Chocobo Racing
Tags:Chocobo Racing Final Fantasy 8 VIII Circuit Kenjo Ito

[Difficulty]
HPDrainRate:2
CircleSize:3
OverallDifficulty:2
SliderMultiplier:1
SliderTickRate:2

[Events]
//Background and Video events
0,0,"Background.jpg"
//Break Periods
//Storyboard Layer 0 (Background)
//Storyboard Layer 1 (Fail)
//Storyboard Layer 2 (Pass)
//Storyboard Layer 3 (Foreground)
//Storyboard Sound Samples
//Background Colour Transformations
3,100,163,162,255

[TimingPoints]
117,348.837209302326,5,1,0,64,1,0
12307,-100,5,1,0,64,0,1
13702,-100,5,1,0,64,0,0

[Colours]
Combo1 : 255,139,83
Combo2 : 4,208,4
Combo3 : 95,95,252
Combo4 : 251,77,77

[HitObjects]
104,192,117,1,0
184,104,640,1,0
256,192,1163,1,0
416,192,1861,5,0
336,104,2384,1,0
256,192,2907,1,0
416,192,3605,5,0
336,280,4128,1,0
256,192,4651,1,0
96,192,5349,5,0
176,280,5872,1,0
256,192,6396,1,0
256,32,7093,5,0
168,112,7616,1,8
256,192,8140,1,8
256,352,8837,5,0
344,272,9361,1,8
256,192,9884,1,8
256,32,10582,5,0
256,152,11105,1,8
256,272,11628,1,8
256,192,12326,12,0,13721
104,312,14070,5,0
104,192,14593,1,8
224,192,15117,2,0,B|216:144|264:120|296:120,1,100,0|8
360,120,15814,2,0,B|408:120|416:120,8,50,0|8|0|8|0|8|0|8|0
360,200,17558,6,0,B|360:248|344:312|272:304|256:296,1,150,0|8
192,296,18430,2,0,B|144:296|112:264|104:240|104:216|104:184,1,150,8|0
104,112,19303,2,8,B|176:88|232:88|304:120,2,200,8|0|8
48,168,21047,5,0
128,256,21570,1,8
208,168,22093,1,0
280,256,22616,2,0,B|328:256|392:224|416:192,1,150,8|0
464,136,23489,1,8
464,136,23837,1,0
464,136,24186,1,8
408,192,24535,5,0
288,192,25058,1,10
168,192,25582,1,0
168,192,25930,1,10
168,272,26279,5,0
288,272,26803,1,10
408,272,27326,1,0
408,272,27675,1,14
392,192,28023,5,0
304,104,28547,1,8
224,192,29070,2,0,B|220:132|176:144|144:168,1,100,0|8
104,224,29768,2,0,B|60:270,8,50,0|8|8|0|8|8|0|8|0
152,160,31512,6,0,B|184:128|200:120|248:104|296:120,1,150,0|8
360,144,32384,2,0,B|392:156|405:192,1,50
424,248,32907,1,8
392,320,33256,2,0,B|368:344|336:360|288:360|240:352|192:344|144:328|112:304|104:272|96:232|96:208|96:176|96:160,1,400,0|8
96,104,35000,5,0
336,104,36047,1,8
416,104,36396,1,8
416,104,36744,1,0
416,344,37791,1,8
336,344,38140,1,8
256,344,38489,5,0
192,240,39012,1,8
88,296,39535,1,0
120,224,39884,1,2
152,152,40233,5,0
272,128,40756,1,8
208,24,41279,1,0
280,48,41628,1,2
272,128,41977,6,8,B|272:168|256:208|216:224|208:240|168:248|112:240|56:240|32:192|32:176,1,300
40,120,43372,1,2
56,40,43721,2,0,B|112:24|160:24|192:32|240:64|272:80|288:120|296:168|296:168|296:184|296:184,1,300,0|8
280,240,45116,5,2
232,304,45465,2,0,B|208:336|160:352|112:344|72:328|56:304|49:269|50:241|52:206|56:176,1,300,0|8
64,104,46861,1,2
80,24,47210,2,8,B|112:16|160:16|208:32|232:64|248:96|256:128|272:152|272:184|296:216,1,300,0|8
312,272,48605,5,2
360,336,48954,2,0,B|400:360|440:360|464:344|480:312|496:272|496:232|488:216|472:184|415:161,1,300,0|8
352,144,50349,1,2
280,112,50698,2,0,B|248:96|208:72|160:80|96:80|55:116|29:170|48:240|48:280|88:328|144:336|192:344|216:344|224:344,1,500
424,232,53489,5,8
384,160,53837,1,2
464,160,54186,2,0,B|448:96|392:56|328:32|240:32|192:48|136:72|112:88|112:88|104:104,1,400,8|0
48,120,55930,6,8,B|0:168|0:208|8:256|16:296|48:320|88:328|120:328|120:328|152:320,1,300
216,296,57326,1,2
288,256,57675,2,8,B|333:229|364:204|364:204|398:172|413:128|410:83|391:55|367:48|367:48|332:45|332:45,1,300,0|8
265,77,59070,1,2
184,64,59419,6,8,B|136:40|88:32|48:48|24:72|16:104|16:136|24:168|48:200|72:216,1,300,0|8
120,264,60814,1,2
184,312,61163,2,0,B|216:336|264:360|296:360|328:360|352:336|376:312|376:288|376:264|376:232|368:200,1,300,0|8
392,136,62558,1,2
336,72,62907,5,0
224,32,63430,1,10
136,112,63954,1,8
128,192,64303,1,10
168,264,64651,5,0
272,320,65175,1,10
360,240,65698,1,12
376,160,66047,1,12
352,80,66396,5,0
240,40,66919,1,10
144,112,67442,1,8
128,192,67791,1,10
256,192,68140,12,12,69535
249,227,69884,6,0,B|249:267|257:315|281:347|329:363|393:363|425:331|441:251,1,300,0|8
440,192,71279,1,2
440,112,71628,2,0,B|440:72|424:48|376:32|288:56|328:104|328:168|328:224|328:248|328:264,1,300,0|8
328,320,73023,1,2
248,344,73372,6,8,B|248:304|248:272|248:232|248:208|248:192|248:160|248:128|248:104|248:88|248:40,1,300,0|0
168,40,74768,1,2
88,40,75117,2,8,B|88:120|88:160|88:208|88:256|88:344,1,300,0|8
168,344,76512,1,8
248,344,76861,5,0
328,344,77210,1,0
328,344,77384,1,10
408,344,77733,1,8
408,344,77907,1,2
464,288,78256,1,10
432,216,78605,5,0
360,176,78954,1,0
360,176,79128,1,8
280,184,79477,1,8
280,184,79651,1,4
208,224,80000,1,4
128,208,80349,5,0
72,152,80698,1,0
72,152,80872,1,10
40,80,81221,1,8
40,80,81396,1,2
72,8,81744,1,10
256,192,82093,12,4,83837
