osu file format v5

[General]
AudioFilename: 26 - Samus VS Space Pirates.mp3
AudioLeadIn: 3000
PreviewTime: -1
Countdown: 1
SampleSet: Normal
StackLeniency: 0.7
Mode: 0
LetterboxInBreaks: 1

[Metadata]
Title:Samus Vs. Space Pirates (Metroid Prime OST)
Artist:Kenji Yamamoto
Creator:Liquidrocks
Version:Hard
Source:
Tags:

[Difficulty]
HPDrainRate:6
CircleSize:5
OverallDifficulty:7
SliderMultiplier:2.6
SliderTickRate:2

[Events]
//Background and Video events
0,0,"mpbackground.png"
//Break Periods
2,16700,17950
2,19950,21075
2,58302,68774
//Storyboard Layer 0 (Background)
//Storyboard Layer 1 (Failing)
//Storyboard Layer 2 (Passing)
//Storyboard Layer 3 (Foreground)
//Storyboard Sound Samples
//Background Colour Transformations
3,100,78,78,78

[TimingPoints]
0,1000,4,1,0,29,1
48460,857.142857142857,4,1,0,29,1
74281,545.454545454545,4,1,0,29,1

[Colours]
Combo1 : 210,210,210
Combo2 : 222,132,10
Combo3 : 160,37,50
Combo4 : 73,45,74

[HitObjects]
127,193,4500,5,2
127,193,4625,2,2,B|415:193,1,260,0|0
387,193,5750,1,0
144,108,7625,5,0
142,107,7750,2,0,B|272:237,1,162.5
255,219,8500,2,0,B|351:91,1,130
334,116,9125,1,4
256,192,11000,12,0,11875
256,192,12875,12,0,13375
341,77,14250,6,8,B|207:180,1,162.5
212,176,15000,2,8,B|342:210,1,130
336,208,15625,2,8,B|159:309,1,195
166,306,16500,1,8
159,188,19000,6,0,B|365:189,1,195
245,194,22125,6,12,B|278:194,7,32.5
19,112,25375,6,0,B|167:292,1,227.5
228,317,26500,6,0,B|254:276,1,32.5
259,270,26750,1,0
269,257,26875,1,0
296,235,27125,6,8,B|336:235,1,32.5
364,227,27500,2,10,B|364:187,1,32.5
364,160,27750,5,0
364,123,27875,1,0
338,95,28125,6,0,B|303:59,12,32.5
288,132,30000,5,8
288,132,30125,2,8,B|211:133,1,65
223,132,30500,2,8,B|172:187,1,65
178,179,30875,2,8,B|226:244,1,65
216,231,31250,2,8,B|295:231,1,65
281,231,31625,2,8,B|330:178,1,65
325,183,32000,2,8,B|281:130,1,65
283,132,32375,1,8
248,93,33000,6,12,B|322:51|263:15|215:19|152:41|122:77|114:90|146:158|223:113,1,292.5
242,144,34375,1,8
242,144,34500,1,8
242,144,34625,1,8
242,144,34750,1,12
274,183,35000,5,8
274,183,35125,1,8
274,183,35250,1,8
274,183,35375,1,12
274,183,35500,1,12
255,236,36250,6,12,B|196:266|256:330|319:304|375:268|401:235|361:185|289:222,1,260
267,184,37750,1,8
267,184,37875,1,10
267,184,38000,1,12
267,184,38125,1,8
234,144,38375,5,8
234,144,38500,1,10
234,144,38625,1,12
234,144,38750,1,12
234,144,38875,1,10
198,242,39375,6,10,B|323:122,2,162.5
176,184,40875,2,10,B|220:142,3,32.5
201,160,41375,2,10,B|226:138,3,32.5
227,139,41875,2,10,B|257:113,4,32.5
322,130,42750,6,10,B|239:219,2,97.5
223,163,43875,1,10
223,163,44000,2,10,B|300:81,1,97.5
250,59,44500,2,10,B|177:138,1,97.5
143,96,45000,2,10,B|222:14,1,97.5
211,25,45500,1,10
136,158,45750,6,0,B|240:159,1,97.5
233,158,46250,1,8
184,214,46500,2,0,B|298:214,1,97.5
281,214,47000,1,8
229,274,47250,2,4,B|336:275,1,97.5
398,227,48000,6,0,B|398:88,1,130
336,99,48685,6,2,B|178:99,1,130
206,100,49424,2,2,B|64:100,1,130
75,100,50174,2,2,B|74:273,1,162.5
74,262,50817,2,2,B|210:310|217:299,1,130
200,299,51352,2,2,B|256:336,1,65
254,335,51674,2,2,B|316:304,1,65
313,305,51995,2,2,B|415:259,1,97.5
401,264,52531,2,2,B|401:94,1,162.5
352,96,53281,5,0
320,96,53495,2,0,B|224:96,1,65
232,95,53817,2,4,B|136:95,1,65
142,98,54245,2,8,B|142:162,6,32.5
174,130,55210,2,0,B|270:130,1,65
270,130,55531,2,4,B|366:130,1,65
366,130,55852,1,0
366,130,56067,2,0,B|366:226,1,65
366,195,56495,2,0,B|78:194,1,260
106,194,57460,2,4,B|106:251,6,32.5
256,192,69674,12,0,70960
256,192,71067,12,0,74067
256,192,74388,6,12,B|256:384,1,162.5
256,354,75138,1,0
222,356,75440,1,0
184,347,75508,1,0
140,328,75712,1,0
129,294,75781,1,0
176,296,75995,2,2,B|313:296,2,130
176,296,76803,2,0,B|176:190,1,97.5
176,198,77212,2,0,B|176:128,1,65
176,133,77758,2,0,B|221:132,9,32.5
210,133,78508,2,0,B|255:132,11,32.5
245,132,79462,2,8,B|291:132,20,32.5
