osu file format v7

[General]
AudioFilename: Brinstar (Melee) - Super Smash Bros. Brawl.mp3
AudioLeadIn: 0
PreviewTime: 13822
Countdown: 1
SampleSet: Normal
StackLeniency: 0.7
Mode: 0
LetterboxInBreaks: 1

[Editor]
Bookmarks: 13822,26322,39536,45742,67304,74224,77528,80474,99536,112706,125920,153331,167170,180340,192170,205251
DistanceSpacing: 0.800000011920929
BeatDivisor: 3
GridSize: 16

[Metadata]
Title:Brinstar Overworld
Artist:Kenji Yamamoto
Creator:Corrderio
Version:Hard
Source:Super Smash Bros. Melee
Tags:Metroid

[Difficulty]
HPDrainRate:8
CircleSize:5
OverallDifficulty:8
SliderMultiplier:0.7
SliderTickRate:0.5

[Events]
//Background and Video events
0,0,"ds_metroid_prime_hunters.jpg"
//Break Periods
2,56431,68281
2,85231,100281
2,142831,148681
//Storyboard Layer 0 (Background)
//Storyboard Layer 1 (Fail)
//Storyboard Layer 2 (Pass)
//Storyboard Layer 3 (Foreground)
//Storyboard Sound Samples
//Background Colour Transformations
3,100,163,162,255

[TimingPoints]
231,400,4,2,0,100,1,0
17031,-100,4,1,0,100,0,0
18631,-100,4,2,0,100,0,0
19955,-100,4,1,0,100,0,0
21964,-100,4,2,0,100,0,0
23431,-100,4,1,0,100,0,0
24631,-100,4,1,0,60,0,0
26631,-100,4,1,0,100,0,0
68631,-50,4,2,0,100,0,0
75164,-100,4,1,0,100,0,0
100497,-100,4,2,0,100,0,0
103431,-100,4,1,0,100,0,0
105431,-100,4,2,0,100,0,0
106497,-100,4,1,0,100,0,0
108631,-100,4,2,0,100,0,0
109964,-100,4,1,0,100,0,0
111031,-100,4,1,0,60,0,0
113164,-100,4,1,0,100,0,0
127564,-100,4,1,0,100,0,0
155031,-100,4,2,0,100,0,0
157831,-100,4,1,0,100,0,0
159831,-100,4,2,0,100,0,0
161031,-100,4,1,0,100,0,0
163031,-100,4,2,0,100,0,0
164631,-100,4,1,0,100,0,0
165431,-100,4,1,0,60,0,0
175431,-100,4,2,0,100,0,0
177564,-100,4,1,0,100,0,0
178231,-100,4,1,0,60,0,0
180631,-100,4,1,0,100,0,0

[Colours]
Combo1 : 255,128,0
Combo2 : 5,240,5
Combo3 : 255,0,0

[HitObjects]
144,112,14631,5,0
256,80,16233,1,0
368,112,17467,1,8
400,144,17697,1,8
400,144,17831,1,8
352,256,19431,1,0
240,304,20631,1,8
208,272,20897,1,8
208,272,21031,1,8
160,192,22631,5,0
256,112,24231,1,8
256,112,24364,1,8
336,192,25030,1,4
368,144,25431,1,4
368,144,25697,1,4
384,272,27431,5,0
256,336,28631,1,8
256,336,29031,1,8
112,272,30251,1,0
96,224,30497,1,0
96,224,30631,1,0
64,112,31831,5,8
64,112,32231,1,8
160,64,33431,1,0
192,80,33699,1,0
192,80,33833,1,0
352,80,35031,1,8
352,80,35433,1,8
432,224,36631,1,0
384,240,36899,1,0
384,240,37033,1,0
256,192,37431,12,4,40231
192,32,41831,5,2
320,32,42631,1,2
432,32,43431,2,8,C|496:112|432:208,1,210
368,192,45031,1,8
256,192,45831,1,8
128,192,46631,2,2,C|64:272|128:368,1,210
176,304,48231,1,4
256,256,49031,1,4
336,304,49831,2,2,C|400:224|336:128,1,210
256,192,51431,1,4
144,96,52231,1,4
256,192,52631,12,4,56231
160,368,69031,6,0,C|64:256|64:128|160:16,1,420
352,16,70631,2,0,C|448:128|448:256|352:368,1,420
160,368,72231,2,0,C|64:256|64:128|160:16,1,420
352,16,73831,2,0,C|448:128|448:256|352:368,1,420
256,304,75431,1,8
256,304,75697,1,8
256,192,77031,1,8
256,192,77297,1,8
144,80,78631,1,8
352,80,79697,1,8
256,144,81831,5,8
256,144,82097,1,8
256,256,83431,1,8
256,256,83697,1,8
256,112,85031,1,8
368,272,101031,5,0
256,304,102633,1,0
144,272,103867,1,8
112,240,104097,1,8
112,240,104231,1,8
160,128,105831,1,0
272,80,107031,1,8
304,112,107297,1,8
304,112,107431,1,8
352,192,109031,5,0
256,272,110631,1,8
256,272,110764,1,8
176,192,111430,1,4
144,240,111831,1,4
144,240,112097,1,4
128,112,113831,5,0
256,48,115031,1,8
256,48,115431,1,8
400,112,116651,1,0
416,160,116897,1,0
416,160,117031,1,0
448,272,118231,5,8
448,272,118631,1,8
352,320,119831,1,0
320,304,120099,1,0
320,304,120233,1,0
160,304,121431,1,8
160,304,121833,1,8
80,160,123031,1,0
128,144,123299,1,0
128,144,123433,1,0
256,192,123831,12,4,126631
320,352,128231,5,2
192,352,129031,1,2
80,352,129831,2,8,C|16:272|80:176,1,210
144,192,131431,1,8
256,192,132231,1,8
384,192,133031,2,2,C|448:112|384:16,1,210
336,80,134631,1,4
256,128,135431,1,4
176,80,136231,2,2,C|112:160|176:256,1,210
256,192,137831,1,4
368,288,138631,1,4
256,192,139164,12,4,142631
352,96,149431,5,8
352,96,149697,1,8
160,96,151031,1,8
160,96,151297,1,8
208,288,152631,5,2
208,288,152897,1,2
304,288,153431,1,4
304,288,153697,1,4
144,112,155431,5,0
256,80,157033,1,0
368,112,158267,1,8
400,144,158497,1,8
400,144,158631,1,8
352,256,160231,1,0
240,304,161431,1,8
208,272,161697,1,8
208,272,161831,1,8
160,192,163431,5,0
256,112,165031,1,8
256,112,165164,1,8
336,192,165830,1,4
384,224,166231,1,4
384,224,166497,1,4
368,272,168231,5,0
256,304,169833,1,0
144,272,171067,1,2
112,240,171297,1,10
112,240,171431,1,10
160,128,173031,1,0
272,80,174231,1,10
304,112,174497,1,8
304,112,174631,1,8
352,192,176231,5,0
256,272,177831,1,8
256,272,177964,1,8
176,192,178630,1,4
144,240,179031,1,4
144,240,179297,1,4
128,272,181031,5,0
256,336,182231,1,8
256,336,182631,1,8
400,272,183851,1,0
416,224,184097,1,0
416,224,184231,1,0
448,112,185431,5,8
448,112,185831,1,8
352,64,187031,1,0
320,80,187299,1,0
320,80,187433,1,0
160,80,188631,1,8
160,80,189033,1,8
80,224,190231,1,0
128,240,190499,1,0
128,240,190633,1,0
256,192,191031,12,4,193831
192,32,195431,5,2
320,32,196231,1,2
432,32,197031,2,8,C|496:112|432:208,1,210
368,192,198631,1,8
256,192,199431,1,8
128,192,200231,2,2,C|64:272|128:368,1,210
176,304,201831,1,4
256,256,202631,1,4
336,304,203431,2,2,C|400:224|336:128,1,210
256,192,205031,1,4
144,96,205831,1,4
256,192,206231,12,4,209831
