osu file format v14

[General]
AudioFilename: Ringo Mogire Beam!.mp3
AudioLeadIn: 0
PreviewTime: 54806
Countdown: 1
SampleSet: Normal
StackLeniency: 0.2
Mode: 0
LetterboxInBreaks: 1
WidescreenStoryboard: 0

[Editor]
DistanceSpacing: 0.8
BeatDivisor: 4
GridSize: 8
TimelineZoom: 1

[Metadata]
Title:Ringo Mogire Beam!
TitleUnicode:
Artist:Kenji Ohtsuki
ArtistUnicode:
Creator:ken710
Version:Love ken ken
Source:Zan Sayonara Zetsubou Sensei
Tags:
BeatmapID:103385
BeatmapSetID:30681

[Difficulty]
HPDrainRate:0
CircleSize:5
OverallDifficulty:0
ApproachRate:9
SliderMultiplier:1.8
SliderTickRate:0.5

[Events]
//Background and Video events
Video,0,"sm14247094.avi"
0,0,"madoka.jpg",0,0
//Break Periods
2,22789,30032
2,75496,86196
2,99662,109863
2,115663,125530
2,133330,139198
2,178829,196196
2,220662,244529
//Storyboard Layer 0 (Background)
//Storyboard Layer 1 (Fail)
//Storyboard Layer 2 (Pass)
//Storyboard Layer 3 (Foreground)
//Storyboard Sound Samples

[TimingPoints]
1299,333.333333333333,4,1,0,50,1,0
13465,-50,4,1,0,50,0,0
14132,-100,4,1,0,50,0,0
16132,-50,4,1,0,50,0,0
16798,-100,4,1,0,50,0,0
18798,-50,4,1,0,50,0,0
19465,-200,4,1,0,50,0,0
20632,-100,4,1,0,50,0,0
22132,-50,4,1,0,50,0,0
22632,-100,4,1,0,50,0,0
54798,1333.33333333333,4,1,0,50,1,1
64797,333.333333333333,4,1,0,50,1,0
97963,-200,4,1,0,50,0,0
99463,-100,4,1,0,50,0,0
126796,-200,4,1,0,50,0,0
128963,-100,4,1,0,50,0,0
131463,-50,4,1,0,50,0,0
133130,-100,4,1,0,50,0,0
139798,6000,4,1,0,0,1,0
141298,333.333333333333,4,1,0,50,1,0
164797,1333.33333333333,4,1,0,50,1,0
175463,333.333333333333,4,1,0,50,1,0
253462,1333.33333333333,4,1,0,50,1,0

[Colours]
Combo1 : 0,0,0
Combo2 : 255,128,192
Combo3 : 0,128,255
Combo4 : 240,5,5
Combo5 : 255,255,0
SliderBorder : 0,0,0

[HitObjects]
88,48,1299,5,0,0:0:0:0:
168,48,1465,1,0,0:0:0:0:
168,120,1632,1,0,0:0:0:0:
88,120,1798,1,0,0:0:0:0:
128,80,1965,2,0,B|128:184,11,90
176,328,3965,5,0,0:0:0:0:
72,328,4132,1,0,0:0:0:0:
72,224,4298,1,0,0:0:0:0:
176,224,4465,1,0,0:0:0:0:
128,280,4632,2,0,B|128:176,11,90
336,336,6632,5,0,0:0:0:0:
440,256,6798,1,0,0:0:0:0:
352,160,6965,1,0,0:0:0:0:
256,248,7132,1,0,0:0:0:0:
344,248,7298,2,0,B|264:160,11,90
304,0,9298,5,0,0:0:0:0:
472,136,9465,1,0,0:0:0:0:
336,280,9632,1,0,0:0:0:0:
160,160,9798,1,0,0:0:0:0:
312,144,9965,2,0,B|240:216,11,90
0,0,11965,5,0,0:0:0:0:
0,384,12132,1,0,0:0:0:0:
512,384,12298,1,0,0:0:0:0:
504,0,12465,1,0,0:0:0:0:
8,80,12798,6,0,B|8:168,1,90
8,296,13465,2,0,B|8:184,2,90
120,176,14132,2,0,L|56:224|136:304,1,180
208,208,15465,2,0,B|296:208,1,90
328,192,16132,2,0,B|248:88|176:200,1,180
176,248,16798,2,0,B|216:328|344:288,1,180
408,282,18132,2,0,B|408:192,1,90
408,192,18798,2,0,B|456:176|496:192,2,90
496,192,19465,2,0,B|496:296,1,90
256,200,20632,5,0,0:0:0:0:
256,200,20799,2,0,B|184:264,1,90
256,200,21132,2,0,B|336:272,1,90
256,200,21466,2,0,B|323:140,1,90
256,200,21799,2,0,B|189:139,1,90
189,139,22132,2,0,B|143:173,1,45
189,140,22215,2,0,B|136:117,1,45
188,138,22298,2,0,B|181:81,1,45
188,140,22382,2,0,B|233:105,1,45
187,140,22465,2,0,B|239:162,1,45
188,140,22548,2,0,B|194:196,1,45
64,320,30632,5,0,0:0:0:0:
144,224,30798,1,0,0:0:0:0:
256,280,30965,1,0,0:0:0:0:
288,160,31132,1,0,0:0:0:0:
416,168,31298,1,0,0:0:0:0:
392,40,31465,1,0,0:0:0:0:
136,120,31798,1,0,0:0:0:0:
64,232,31965,1,0,0:0:0:0:
176,312,32132,1,0,0:0:0:0:
248,208,32298,1,0,0:0:0:0:
312,312,32465,1,0,0:0:0:0:
432,352,32632,1,0,0:0:0:0:
432,224,32798,2,0,B|408:200|456:152|416:96,1,90
104,56,34132,5,0,0:0:0:0:
232,168,34298,1,0,0:0:0:0:
232,56,34799,1,0,0:0:0:0:
168,112,34882,1,0,0:0:0:0:
104,168,34966,1,0,0:0:0:0:
168,112,35465,2,0,B|136:144|200:208|168:288,1,180
280,328,36798,5,0,0:0:0:0:
408,216,36964,1,0,0:0:0:0:
408,328,37465,1,0,0:0:0:0:
344,272,37548,1,0,0:0:0:0:
280,216,37632,1,0,0:0:0:0:
344,272,38132,2,0,B|312:240|376:176|344:96,1,180
264,64,38632,5,0,0:0:0:0:
168,112,38798,1,0,0:0:0:0:
72,160,38965,1,0,0:0:0:0:
72,160,39132,2,0,B|144:232,1,90
135,223,39382,1,0,0:0:0:0:
135,223,39465,1,0,0:0:0:0:
216,304,39632,1,0,0:0:0:0:
304,248,39798,1,0,0:0:0:0:
256,200,39882,1,0,0:0:0:0:
208,152,39965,1,0,0:0:0:0:
384,192,40132,1,0,0:0:0:0:
432,240,40215,1,0,0:0:0:0:
480,288,40298,1,0,0:0:0:0:
448,168,40465,1,0,0:0:0:0:
416,48,40632,1,0,0:0:0:0:
416,48,40798,2,0,B|400:-8,4,45
304,32,41298,1,0,0:0:0:0:
184,64,41465,1,0,0:0:0:0:
184,64,41548,1,0,0:0:0:0:
184,64,41632,2,0,B|104:104,1,90
103,104,41965,1,0,0:0:0:0:
184,160,42132,2,0,B|136:184,2,45
272,120,42465,2,0,B|320:96,2,45
400,136,42798,2,0,B|336:168,1,45
336,168,42965,2,0,B|272:200,1,45
272,200,43132,2,0,B|208:232,1,45
160,256,43298,2,0,B|200:235,4,45
264,352,43965,5,0,0:0:0:0:
264,320,44048,2,0,B|264:272,1,45
264,275,44298,1,0,0:0:0:0:
384,168,44632,2,0,B|384:216,1,45
384,213,44798,1,0,0:0:0:0:
384,213,44965,1,0,0:0:0:0:
352,56,45298,2,0,B|392:40,1,45
312,72,45465,1,0,0:0:0:0:
272,88,45548,1,0,0:0:0:0:
232,104,45632,1,0,0:0:0:0:
192,120,45715,1,0,0:0:0:0:
152,136,45798,1,0,0:0:0:0:
112,152,45882,1,0,0:0:0:0:
72,168,45965,1,0,0:0:0:0:
32,184,46048,1,0,0:0:0:0:
72,208,46132,1,0,0:0:0:0:
112,232,46215,1,0,0:0:0:0:
152,256,46298,1,0,0:0:0:0:
224,200,46632,2,0,B|224:152,1,45
224,64,46798,1,0,0:0:0:0:
352,136,46965,1,0,0:0:0:0:
352,136,47298,2,0,B|352:88,1,45
352,0,47465,1,0,0:0:0:0:
480,72,47632,1,0,0:0:0:0:
488,216,47965,2,0,B|400:256,1,90
409,254,48298,2,0,B|318:255,1,90
320,256,48632,2,0,B|239:296,1,90
239,295,48965,2,0,B|150:295,1,90
168,88,52298,6,0,B|80:88,2,90
344,88,52798,2,0,B|440:88,1,90
432,192,53132,2,0,B|320:192,1,90
168,192,53465,2,0,B|72:192,2,90
168,296,53965,1,0,0:0:0:0:
336,296,54132,1,0,0:0:0:0:
368,264,54215,1,0,0:0:0:0:
400,232,54298,1,0,0:0:0:0:
432,200,54382,1,0,0:0:0:0:
400,168,54465,1,0,0:0:0:0:
368,136,54548,1,0,0:0:0:0:
336,104,54632,1,0,0:0:0:0:
304,72,54715,1,0,0:0:0:0:
304,72,54798,6,0,B|160:72,1,135
169,72,56131,2,0,B|32:72,1,135
32,184,57464,2,0,L|40:176|56:192|72:176|88:192|104:176|120:192|136:176,1,135
248,184,58797,1,0,0:0:0:0:
360,184,59131,1,0,0:0:0:0:
472,184,59464,1,0,0:0:0:0:
472,288,59797,1,0,0:0:0:0:
360,288,60131,2,0,B|272:288,1,90
176,288,61131,1,0,0:0:0:0:
80,288,61464,2,0,B|80:192,1,90
80,80,62464,1,0,0:0:0:0:
192,80,62797,2,0,B|248:80,1,45
296,80,63464,2,0,B|344:80,1,45
400,80,64131,2,0,B|448:80,2,45
400,176,64963,2,0,B|448:152,5,45
400,176,65463,6,0,B|240:256,1,180
112,136,66130,2,0,B|272:56,1,180
360,144,66797,2,0,B|320:320,1,180
144,207,67463,2,0,B|184:32,1,180
336,72,68130,2,0,B|424:24,1,90
384,160,68463,2,0,B|480:152,1,90
392,256,68797,2,0,B|488:280,1,90
320,328,69130,2,0,B|416:384,1,90
208,344,69463,2,0,B|184:384,2,45
112,288,69797,1,0,0:0:0:0:
64,176,69963,1,0,0:0:0:0:
128,72,70130,1,0,0:0:0:0:
176,192,70297,1,0,0:0:0:0:
256,96,70463,1,0,0:0:0:0:
376,56,70630,1,0,0:0:0:0:
440,160,70797,2,0,B|488:168,2,45
440,160,71130,5,0,0:0:0:0:
352,240,71297,1,0,0:0:0:0:
296,264,71380,1,0,0:0:0:0:
240,288,71463,1,0,0:0:0:0:
248,192,71630,1,0,0:0:0:0:
304,168,71713,1,0,0:0:0:0:
360,144,71796,1,0,0:0:0:0:
368,48,71963,1,0,0:0:0:0:
312,72,72046,1,0,0:0:0:0:
256,96,72129,1,0,0:0:0:0:
144,144,72296,1,0,0:0:0:0:
88,112,72380,1,0,0:0:0:0:
40,80,72463,1,0,0:0:0:0:
32,200,72630,1,0,0:0:0:0:
88,232,72713,1,0,0:0:0:0:
144,264,72796,1,0,0:0:0:0:
256,384,72963,1,0,0:0:0:0:
264,368,73046,1,0,0:0:0:0:
256,352,73130,1,0,0:0:0:0:
248,336,73213,1,0,0:0:0:0:
256,320,73296,1,0,0:0:0:0:
264,304,73380,1,0,0:0:0:0:
256,288,73463,1,0,0:0:0:0:
248,272,73546,1,0,0:0:0:0:
256,256,73630,1,0,0:0:0:0:
264,240,73713,1,0,0:0:0:0:
256,224,73796,1,0,0:0:0:0:
248,208,73880,1,0,0:0:0:0:
256,192,73963,1,0,0:0:0:0:
264,176,74046,1,0,0:0:0:0:
256,160,74130,1,0,0:0:0:0:
248,144,74213,1,0,0:0:0:0:
256,128,74296,1,0,0:0:0:0:
264,112,74380,1,0,0:0:0:0:
256,96,74463,1,0,0:0:0:0:
248,80,74546,1,0,0:0:0:0:
256,64,74630,1,0,0:0:0:0:
264,48,74713,1,0,0:0:0:0:
256,32,74796,1,0,0:0:0:0:
248,16,74880,1,0,0:0:0:0:
256,0,74963,2,0,B|256:-48,4,45
80,200,86796,5,0,0:0:0:0:
80,128,86963,1,0,0:0:0:0:
160,200,87296,1,0,0:0:0:0:
160,312,87463,1,0,0:0:0:0:
264,200,87796,1,0,0:0:0:0:
264,56,87963,1,0,0:0:0:0:
392,200,88296,1,0,0:0:0:0:
392,384,88463,1,0,0:0:0:0:
160,72,88796,6,0,B|136:72|136:96|112:96,1,45
56,168,89130,1,0,0:0:0:0:
56,304,89296,1,0,0:0:0:0:
120,248,89463,6,0,B|192:176,1,90
248,128,89796,1,0,0:0:0:0:
312,64,89963,1,0,0:0:0:0:
408,64,90130,2,0,B|496:64,2,90
384,144,90630,1,0,0:0:0:0:
352,224,90796,1,0,0:0:0:0:
320,304,90963,1,0,0:0:0:0:
272,240,91130,2,0,B|232:160,1,90
200,88,91463,2,0,B|160:64|192:32|160:8,2,90
200,88,91963,1,0,0:0:0:0:
104,128,92130,1,0,0:0:0:0:
120,232,92296,1,0,0:0:0:0:
216,184,92463,1,0,0:0:0:0:
288,104,92630,1,0,0:0:0:0:
392,104,92796,1,0,0:0:0:0:
392,104,92963,2,0,B|480:72,2,90
448,200,93463,1,0,0:0:0:0:
376,280,93630,1,0,0:0:0:0:
272,288,93796,1,0,0:0:0:0:
168,256,93963,1,0,0:0:0:0:
88,184,94130,2,0,B|72:168|104:136|88:88,2,90
64,288,94630,1,0,0:0:0:0:
160,232,94796,1,0,0:0:0:0:
216,144,94963,1,0,0:0:0:0:
248,40,95130,1,0,0:0:0:0:
144,8,95296,1,0,0:0:0:0:
152,120,95463,1,0,0:0:0:0:
208,216,95630,1,0,0:0:0:0:
296,280,95796,1,0,0:0:0:0:
400,296,95963,2,0,B|416:384,2,90
368,192,96463,1,0,0:0:0:0:
400,88,96630,1,0,0:0:0:0:
400,88,96796,2,0,B|456:96|400:32|496:32,2,90
280,72,97296,5,0,0:0:0:0:
176,56,97463,1,0,0:0:0:0:
72,96,97630,1,0,0:0:0:0:
32,200,97796,1,0,0:0:0:0:
144,160,97963,6,0,B|144:224,1,45
208,296,98463,1,0,0:0:0:0:
256,224,98796,6,0,L|248:216|264:200|248:184|264:168|248:152|264:136|248:120|264:104|248:88,1,180
328,192,110463,5,0,0:0:0:0:
184,192,110463,5,0,0:0:0:0:
184,192,110630,1,0,0:0:0:0:
328,192,110630,1,0,0:0:0:0:
328,192,110796,1,0,0:0:0:0:
184,192,110796,1,0,0:0:0:0:
184,192,110963,1,0,0:0:0:0:
328,192,110963,1,0,0:0:0:0:
328,192,111130,1,0,0:0:0:0:
184,192,111130,1,0,0:0:0:0:
328,192,111296,1,0,0:0:0:0:
184,192,111296,1,0,0:0:0:0:
184,192,111463,1,0,0:0:0:0:
328,192,111463,1,0,0:0:0:0:
328,192,111630,1,0,0:0:0:0:
184,192,111630,1,0,0:0:0:0:
184,192,111796,1,0,0:0:0:0:
328,192,111796,1,0,0:0:0:0:
416,216,111963,1,0,0:0:0:0:
96,216,111963,1,0,0:0:0:0:
416,216,112130,1,0,0:0:0:0:
96,216,112130,1,0,0:0:0:0:
432,216,112296,1,0,0:0:0:0:
80,216,112296,1,0,0:0:0:0:
432,216,112463,1,0,0:0:0:0:
80,216,112463,1,0,0:0:0:0:
56,216,112630,1,0,0:0:0:0:
456,216,112630,1,0,0:0:0:0:
456,216,112796,1,0,0:0:0:0:
56,216,112796,1,0,0:0:0:0:
40,216,112963,1,0,0:0:0:0:
472,216,112963,1,0,0:0:0:0:
0,216,113130,1,0,0:0:0:0:
512,216,113130,1,0,0:0:0:0:
0,216,113296,1,0,0:0:0:0:
512,216,113296,1,0,0:0:0:0:
512,216,113463,1,0,0:0:0:0:
0,216,113463,1,0,0:0:0:0:
512,216,113630,1,0,0:0:0:0:
0,216,113630,1,0,0:0:0:0:
0,216,113796,1,0,0:0:0:0:
512,216,113796,1,0,0:0:0:0:
512,216,113963,1,0,0:0:0:0:
0,216,113963,1,0,0:0:0:0:
0,216,114130,1,0,0:0:0:0:
512,216,114130,1,0,0:0:0:0:
512,216,114296,1,0,0:0:0:0:
0,216,114296,1,0,0:0:0:0:
0,216,114463,1,0,0:0:0:0:
512,216,114463,1,0,0:0:0:0:
0,216,114630,1,0,0:0:0:0:
512,216,114630,1,0,0:0:0:0:
136,152,114796,1,0,0:0:0:0:
376,153,114963,1,0,0:0:0:0:
180,293,115130,1,0,0:0:0:0:
256,65,115296,1,0,0:0:0:0:
329,294,115463,1,0,0:0:0:0:
256,192,126130,12,0,126463,0:0:0:0:
152,0,126796,6,0,B|208:-72|288:-72|344:-56|376:-16|408:32|400:160|272:104|216:56|200:80|224:144|280:168|240:200|256:200|256:296,1,585
256,384,129130,1,0,0:0:0:0:
256,384,129463,1,0,0:0:0:0:
288,264,129630,1,0,0:0:0:0:
320,144,129796,1,0,0:0:0:0:
360,24,129963,1,0,0:0:0:0:
216,48,130130,1,0,0:0:0:0:
256,176,130296,1,0,0:0:0:0:
384,128,130463,1,0,0:0:0:0:
248,88,130630,1,0,0:0:0:0:
200,224,130796,1,0,0:0:0:0:
336,272,130963,1,0,0:0:0:0:
208,360,131130,1,0,0:0:0:0:
112,224,131296,1,0,0:0:0:0:
272,112,131463,2,0,B|360:152,1,90
353,149,131630,2,0,B|272:208,1,90
280,201,131796,2,0,B|192:160,1,90
199,163,131963,2,0,B|112:120,1,90
118,123,132130,2,0,B|192:72,12,90
0,312,139798,6,0,B|0:360,1,45
448,312,139798,6,0,B|448:360,1,45
392,48,139798,6,0,B|392:3,1,45
56,312,139798,2,0,B|56:360,1,45,0|0,0:0|0:0,0:0:0:0:
392,312,139798,2,0,B|392:360,1,45
280,312,139798,2,0,B|280:360,1,45
336,312,139798,2,0,B|336:360,1,45
504,312,139798,2,0,B|504:360,1,45
224,312,139798,2,0,B|224:360,1,45
112,312,139798,2,0,B|112:360,1,45
168,312,139798,2,0,B|168:360,1,45
0,48,139798,2,0,B|0:3,1,45
168,48,139798,2,0,B|168:3,1,45
504,48,139798,2,0,B|504:3,1,45
112,48,139798,2,0,B|112:3,1,45
224,48,139798,2,0,B|224:3,1,45
280,48,139798,2,0,B|280:3,1,45
56,48,139798,2,0,B|56:3,1,45
336,48,139798,2,0,B|336:3,1,45
448,48,139798,2,0,B|448:3,1,45
88,232,141464,5,0,0:0:0:0:
168,144,141631,1,0,0:0:0:0:
200,256,141798,1,0,0:0:0:0:
200,256,142131,1,0,0:0:0:0:
168,144,142298,1,0,0:0:0:0:
88,232,142465,1,0,0:0:0:0:
120,344,142798,1,0,0:0:0:0:
88,232,142964,1,0,0:0:0:0:
168,144,143131,1,0,0:0:0:0:
200,256,143298,1,0,0:0:0:0:
304,312,143464,2,0,B|272:352,7,45
304,312,144131,6,0,B|488:280,1,180
424,96,144798,2,0,B|488:32,2,90
240,56,145464,2,0,B|56:80,1,180
136,240,146131,2,0,B|88:320,2,90
320,304,146798,2,0,B|216:328,2,90
424,136,147464,2,0,B|528:112,2,90
248,32,148131,2,0,B|352:8,3,90
128,64,148798,1,0,0:0:0:0:
128,184,148964,1,0,0:0:0:0:
128,296,149131,1,0,0:0:0:0:
32,368,149464,2,0,B|122:368,1,90
192,352,149798,2,0,B|288:352,1,90
352,336,150131,2,0,B|440:336,1,90
296,296,150464,1,0,0:0:0:0:
424,192,150630,1,0,0:0:0:0:
376,56,150797,1,0,0:0:0:0:
224,24,150964,1,0,0:0:0:0:
104,120,151130,1,0,0:0:0:0:
144,264,151297,1,0,0:0:0:0:
296,296,151464,1,0,0:0:0:0:
296,296,151798,1,0,0:0:0:0:
80,8,152131,5,0,0:0:0:0:
440,16,152464,1,0,0:0:0:0:
352,128,152798,1,0,0:0:0:0:
256,128,152964,1,0,0:0:0:0:
160,128,153131,1,0,0:0:0:0:
256,264,153464,2,0,B|208:216|128:208,1,135
136,208,153798,1,0,0:0:0:0:
144,336,153964,1,0,0:0:0:0:
200,224,154131,1,0,0:0:0:0:
328,168,154298,1,0,0:0:0:0:
392,48,154464,1,0,0:0:0:0:
392,48,154631,1,0,0:0:0:0:
392,48,154798,6,0,B|424:112,3,45
412,88,155131,2,0,B|400:136,3,45
401,131,155464,2,0,B|416:176,3,45
415,174,155797,2,0,B|408:224,3,45
408,218,156131,2,0,B|376:256,3,45
378,252,156464,2,0,B|328:240,3,45
335,241,156797,2,0,B|264:248,3,45
290,245,157131,2,0,B|256:304,3,45
267,284,157464,2,0,B|208:288,3,45
222,287,157797,2,0,B|152:272,3,45
178,277,158131,2,0,B|120:280,3,45
133,279,158464,2,0,B|88:240,3,45
99,250,158797,2,0,B|88:208,3,45
87,206,159131,2,0,B|96:160,3,45
95,162,159464,2,0,B|88:112,3,45
88,117,159797,2,0,B|152:104,1,45
132,108,159964,2,0,B|176:80,1,45
170,83,160131,2,0,B|168:32,1,45
168,38,160297,2,0,B|232:24,1,45
212,28,160464,2,0,B|272:56,1,45
253,47,160631,2,0,B|320:40,1,45
297,42,160797,2,0,B|344:64,1,45
338,61,160964,2,0,B|400:72,1,45
382,69,161131,2,0,B|432:120,1,45
414,101,161297,2,0,B|440:152|440:152,1,45
434,141,161464,2,0,B|416:184,1,45
416,182,161631,2,0,B|432:232,1,45
430,225,161797,2,0,B|424:272,1,45
424,270,161964,2,0,B|400:312,1,45
401,309,162131,2,0,B|352:336,1,45
362,330,162297,2,0,B|304:352,1,45
319,346,162464,2,0,B|248:344,1,45
274,344,162631,2,0,B|208:320,1,45
232,329,162797,2,0,B|168:336,1,45
187,333,162964,2,0,B|120:312,1,45
145,320,163131,2,0,B|104:280,1,45
112,288,163297,2,0,B|88:240,1,45
92,248,163464,2,0,B|104:200,1,45
102,204,163631,2,0,B|96:152,1,45
97,160,163797,2,0,B|136:128,1,45
131,131,163964,2,0,B|192:112,1,45
174,117,164131,2,0,B|240:144,1,45
216,134,164297,2,0,B|272:128,1,45
261,129,164464,2,0,B|320:136,1,45
305,134,164631,2,0,B|352:112,1,45
346,114,164797,6,0,B|408:176|392:288,1,180
160,272,166797,2,0,B|96:216|112:128,1,135
296,40,168130,2,0,B|336:56|376:80,1,90
376,200,169130,1,0,0:0:0:0:
376,320,169463,2,0,B|432:304,2,45
168,304,170463,1,0,0:0:0:0:
168,304,170797,2,0,B|168:168,1,135
168,56,172130,2,0,B|344:56,1,135
400,56,173463,2,0,B|400:208,1,135
400,312,174797,1,0,0:0:0:0:
400,208,175130,1,0,0:0:0:0:
400,312,175463,1,0,0:0:0:0:
120,312,175796,1,0,0:0:0:0:
256,16,176129,5,0,0:0:0:0:
432,191,176296,1,0,0:0:0:0:
256,368,176630,1,0,0:0:0:0:
80,192,176796,1,0,0:0:0:0:
432,191,177129,1,0,0:0:0:0:
256,16,177296,1,0,0:0:0:0:
80,192,177630,1,0,0:0:0:0:
256,368,177796,1,0,0:0:0:0:
256,368,178129,1,0,0:0:0:0:
80,192,178296,1,0,0:0:0:0:
256,16,178463,1,0,0:0:0:0:
432,191,178629,1,0,0:0:0:0:
256,192,196796,12,0,198462,0:0:0:0:
256,200,198796,5,0,0:0:0:0:
256,200,199129,1,0,0:0:0:0:
288,168,199212,1,0,0:0:0:0:
320,136,199296,1,0,0:0:0:0:
288,104,199379,1,0,0:0:0:0:
256,72,199462,1,0,0:0:0:0:
224,104,199546,1,0,0:0:0:0:
192,136,199629,1,0,0:0:0:0:
224,168,199712,1,0,0:0:0:0:
256,200,199796,2,0,B|256:304,2,90
256,72,200462,1,0,0:0:0:0:
424,128,200796,5,0,0:0:0:0:
424,128,200962,2,0,B|368:168|312:176,1,90
280,160,201296,1,0,0:0:0:0:
280,160,201463,2,0,B|224:184|160:176,1,90
128,144,201796,2,0,B|104:104|104:32,2,90
128,144,202296,1,0,0:0:0:0:
112,224,202462,1,0,0:0:0:0:
112,224,202629,2,0,B|112:272|136:320,1,90
216,280,202962,2,0,B|256:296|312:304,1,90
376,360,203296,1,0,0:0:0:0:
440,296,203462,2,0,B|456:256|456:192,1,90
416,144,203796,1,0,0:0:0:0:
416,144,203962,2,0,B|496:104,2,90
344,216,204462,2,0,B|344:128,1,90
248,72,204796,2,0,B|304:48,2,45
176,104,205129,6,0,B|96:144,1,90
24,184,205462,1,0,0:0:0:0:
24,184,205629,2,0,B|112:232,1,90
176,272,205962,1,0,0:0:0:0:
176,272,206046,1,0,0:0:0:0:
176,272,206129,2,0,B|216:296|280:296,1,90
376,272,206462,1,0,0:0:0:0:
376,272,206629,2,0,B|360:312|336:352,2,90
432,200,207129,1,0,0:0:0:0:
432,200,207296,2,0,B|472:216|512:240,2,90
344,248,207796,2,0,B|296:272|232:280,1,90
258,275,208129,1,0,0:0:0:0:
128,296,208296,2,0,B|72:376,2,90
120,168,208796,1,0,0:0:0:0:
120,168,208962,2,0,B|176:88,2,90
176,240,209462,2,0,B|144:280,1,45
224,256,209629,2,0,B|208:304,1,45
272,264,209796,2,0,B|272:312,1,45
320,264,209962,2,0,B|336:304,1,45
368,256,210046,2,0,B|400:288,1,45
432,176,210296,2,0,B|496:168,6,45
496,80,211129,5,0,0:0:0:0:
496,80,211295,2,0,B|448:96|400:96,1,90
312,136,211629,2,0,B|248:136|184:112,3,90
222,124,212296,1,0,0:0:0:0:
128,72,212462,2,0,B|128:160,1,90
64,216,212796,2,0,B|64:320,1,90
64,306,213046,1,0,0:0:0:0:
64,306,213129,1,0,0:0:0:0:
200,328,213296,1,0,0:0:0:0:
200,328,213379,2,0,B|168:296,1,45
208,232,213629,1,0,0:0:0:0:
208,232,213712,2,0,B|176:200,1,45
216,120,213962,1,0,0:0:0:0:
216,120,214045,2,0,B|184:88,1,45
344,88,214296,2,0,B|360:48,2,45
344,200,214629,2,0,B|312:248,2,45
456,160,214962,2,0,B|496:136,2,45
456,272,215296,2,0,B|456:320,2,45
344,312,215629,2,0,B|304:328,7,45
302,328,216296,1,0,0:0:0:0:
264,328,216379,1,0,0:0:0:0:
232,328,216462,1,0,0:0:0:0:
192,328,216546,1,0,0:0:0:0:
160,328,216629,1,0,0:0:0:0:
128,328,216712,1,0,0:0:0:0:
88,328,216796,2,0,B|72:368,9,45
88,328,217629,1,0,0:0:0:0:
80,296,217712,1,0,0:0:0:0:
72,264,217796,1,0,0:0:0:0:
64,232,217879,1,0,0:0:0:0:
56,200,217962,1,0,0:0:0:0:
48,168,218046,1,0,0:0:0:0:
40,136,218129,2,0,B|-8:128,6,45
160,128,218796,6,0,B|144:80,2,45
192,224,219129,2,0,B|208:272,2,45
272,32,219462,2,0,B|280:64,2,22.5
304,136,219629,2,0,B|312:168,2,22.5
336,240,219796,2,0,B|344:272,2,22.5
424,56,220129,2,0,B|488:240,1,180
256,192,245129,12,0,250462,0:0:0:0:
120,312,253462,6,0,B|184:288|224:320|288:368|416:296,1,270
391,200,256128,6,0,B|296:256|232:208|192:176|128:200,1,270
128,80,258795,6,0,L|176:64|232:128|240:104|246:124|278:62|305:124|328:88|376:142|383:75|440:56,1,540
383,312,264128,6,0,B|288:368|224:320|184:288|120:312,1,270
120,208,266795,6,0,B|184:184|224:216|288:264|416:192,1,270
408,72,269461,6,0,L|360:56|304:120|296:96|290:116|258:54|231:116|208:80|160:134|153:67|96:48,1,540
