osu file format v5

[General]
AudioFilename: 01_Mt_Red_a_Symbol_of_Thrill_for_Red_Mountain.mp3
AudioLeadIn: 0
PreviewTime: -1
Countdown: 1
SampleSet: Normal
StackLeniency: 0.7
Mode: 0
LetterboxInBreaks: 1
EditorBookmarks: 17143,77607,91520

[Metadata]
Title:Mt. Red: A Symbol of Thrill
Artist:Kenichi Tokoi
Creator:TheRagnarok
Version:Easy
Source:Sonic Adventure (DX)
Tags:Sonic Adventure Red Mountain Symbol

[Difficulty]
HPDrainRate:2
CircleSize:2
OverallDifficulty:2
SliderMultiplier:1.4
SliderTickRate:2

[Events]
//Background and Video events
0,0,"KnuxRedMountain.png"
//Break Periods
//Storyboard Layer 0 (Background)
//Storyboard Layer 1 (Failing)
//Storyboard Layer 2 (Passing)
//Storyboard Layer 3 (Foreground)
//Storyboard Sound Samples
//Background Colour Transformations
3,100,163,162,255

[TimingPoints]
4100,434.782608695652,4,1,0,62,1

[HitObjects]
256,192,4100,1,4
128,192,4753,5,0
256,88,5622,1,0
256,256,6492,1,0
336,256,6927,2,2,B|376:256|406:226|422:201|432:160,1,140,2|10
432,336,8231,5,0
224,336,9318,1,8
168,272,9753,1,8
112,208,10187,1,8
192,192,10622,5,0
272,192,11057,2,2,B|280:144|308:117|336:104|384:125|396:164|408:200,1,210,2|10
408,272,12143,2,0,B|384:320|352:344|272:360|208:360|144:360|112:328|72:304|48:264|32:224,1,420,0|4
152,192,14100,5,0
240,192,14535,2,2,B|248:144|276:117|304:104|352:125|364:164|376:200,1,210,2|10
256,192,15622,12,4,17144
144,320,18448,5,0
80,264,18883,1,0
80,136,19535,1,8
80,48,19970,2,0,B|136:48|257:29|286:64|111:164|47:271|147:260|280:184|402:84|370:150|280:264|264:296,1,490
416,256,22144,1,12
416,256,22796,1,12
416,216,23013,2,0,B|416:176|392:152|344:160|296:192|272:304|224:352|168:368|88:312|56:240|72:184|104:88|184:48,1,630,0|4
256,64,25405,5,0
256,144,25840,1,0
384,144,26492,1,8
456,192,26927,2,0,B|456:224|456:264|432:280|384:296|344:264|336:232|320:200|304:136|304:96|280:72|232:72|184:88|160:160|136:216,1,490,0|8
144,320,29100,1,12
272,320,29753,2,0,B|272:240,1,70,0|2
352,248,30405,6,2,B|352:152|336:128|258:85|232:80|152:119|132:137|116:162|112:256,1,420,2|6
240,248,32361,5,0
240,160,32796,1,0
360,192,33448,1,8
440,192,33883,2,0,B|440:144|432:104|408:64|336:48|280:56|272:136|272:176|264:248|240:320|168:328|120:320,1,490,0|8
152,192,36057,1,12
152,192,36709,1,12
112,192,36926,2,4,B|64:192|48:216|48:272|80:320|152:352|240:344|320:312|376:288|400:224|432:152|400:72|296:56,1,630,0|4
256,64,39318,5,0
256,144,39753,1,0
384,144,40405,1,8
456,192,40840,2,0,L|365:232|336:184|296:232|256:184|208:224|160:176|104:240,1,490,0|8
104,112,43013,1,12
232,112,43666,2,0,B|232:192,1,70,0|2
232,264,44318,6,0,L|232:336,4,70,0|0|0|0|6
336,192,45840,5,8
256,88,46492,1,0
184,192,47144,1,0
256,232,47579,5,8
384,232,48231,1,0
384,104,48883,1,0
320,160,49318,5,8
232,248,49970,1,0
144,336,50622,1,4
256,192,52796,5,8
256,320,53448,1,0
256,192,54100,1,0
256,104,54535,5,8
384,104,55187,1,0
256,104,55840,1,0
168,104,56274,5,8
168,232,56927,1,0
168,104,57579,1,0
80,112,58013,2,4,L|80:344,1,210,4|0
120,320,58883,2,2,L|352:152,1,280
200,72,60622,5,8
88,192,61492,1,8
208,312,62361,2,6,L|320:216,1,140
376,160,63231,5,8
224,80,64100,1,8
72,160,64970,1,8
232,192,65840,2,4,L|232:360,2,140
328,56,67579,5,8
424,192,68448,1,8
328,328,69318,2,6,L|216:224,1,140
160,176,70187,5,8
328,176,71057,1,8
256,328,71927,2,4,L|256:184,3,140
256,104,73666,6,2,B|328:120|384:144|352:192|280:216|232:224|152:216|128:256|168:304|264:336,2,420
128,192,77144,5,4
256,192,77579,12,4,80622
