osu file format v14

[General]
AudioFilename: TimeGear.mp3
AudioLeadIn: 0
PreviewTime: 66555
Countdown: 0
SampleSet: Soft
StackLeniency: 0.7
Mode: 0
LetterboxInBreaks: 1
EpilepsyWarning: 1
WidescreenStoryboard: 1

[Editor]
Bookmarks: 34113,134578
DistanceSpacing: 1.1
BeatDivisor: 2
GridSize: 4
TimelineZoom: 1.4

[Metadata]
Title:Time Gear
TitleUnicode:Time Gear
Artist:Ken Sugimori
ArtistUnicode:Ken Sugimori
Creator:Winek
Version:Hard
Source:Pokémon Mystery Dungeon: Explorer of Time, Darkness and Sky
Tags:lake trio OST uxie azelf mesprit PMD
BeatmapID:665104
BeatmapSetID:296169

[Difficulty]
HPDrainRate:5
CircleSize:4
OverallDifficulty:6
ApproachRate:7
SliderMultiplier:1.4
SliderTickRate:1

[Events]
//Background and Video events
0,0,"Time.png",0,0
//Break Periods
2,101289,116934
//Storyboard Layer 0 (Background)
//Storyboard Layer 1 (Fail)
//Storyboard Layer 2 (Pass)
//Storyboard Layer 3 (Foreground)
//Storyboard Sound Samples

[TimingPoints]
624.77664712457,348.837209302326,3,2,1,20,1,0
67601,-100,3,2,1,50,0,1
101089,-100,3,2,1,20,0,0
168066,-100,3,2,1,50,0,1
201555,-100,3,2,1,50,0,0

[Colours]
Combo1 : 142,180,249
Combo2 : 255,130,133
Combo3 : 17,238,145

[HitObjects]
104,152,624,6,0,P|148:192|140:268,1,140,2|2,0:0|0:0,0:0:0:0:
25,163,1322,1,2,0:0:0:0:
263,225,1671,2,0,P|339:209|347:193,1,70,2|0,0:0|0:0,0:0:0:0:
292,160,2020,2,0,P|296:112|340:80,2,70,2|0|2,0:0|0:0|0:0,0:0:0:0:
96,324,2717,2,0,P|36:288|24:264,1,70,2|0,0:0|0:0,0:0:0:0:
167,301,3066,1,2,0:0:0:0:
96,324,3241,2,0,P|96:276|116:248,1,70,0|2,0:0|0:0,0:0:0:0:
324,60,3764,1,2,0:0:0:0:
399,73,3938,1,0,0:0:0:0:
350,132,4113,1,2,0:0:0:0:
324,60,4287,1,0,0:0:0:0:
399,73,4461,1,2,0:0:0:0:
53,240,4810,6,0,P|62:197|110:157,4,70,2|0|2|0|2,0:0|0:0|0:0|0:0|0:0,0:0:0:0:
347,299,5857,1,2,0:0:0:0:
347,299,6031,1,0,0:0:0:0:
291,248,6206,2,0,P|342:222|386:234,1,70,2|0,0:0|0:0,0:0:0:0:
276,320,6555,1,2,0:0:0:0:
125,158,6903,2,0,P|153:137|172:107,1,70,2|0,0:0|0:0,0:0:0:0:
54,125,7252,1,2,0:0:0:0:
173,108,7427,2,0,P|206:158|200:195,1,70,0|2,0:0|0:0,0:0:0:0:
383,146,7950,2,0,P|424:122|461:68,3,70,2|0|2|0,0:0|0:0|0:0|0:0,0:0:0:0:
328,92,8648,1,2,0:0:0:0:
59,312,8996,5,2,0:0:0:0:
115,157,9345,1,2,0:0:0:0:
133,316,9694,1,2,0:0:0:0:
347,172,10043,2,0,P|311:214|320:273,1,70,2|0,0:0|0:0,0:0:0:0:
306,106,10392,2,0,P|266:107|215:148,1,70,2|0,0:0|0:0,0:0:0:0:
382,99,10741,1,2,0:0:0:0:
56,234,11089,2,0,P|85:227|132:179,2,70,2|0|2,0:0|0:0|0:0,0:0:0:0:
46,315,11613,1,0,0:0:0:0:
119,293,11787,1,2,0:0:0:0:
352,52,12136,2,0,P|403:63|437:116,1,70,2|0,0:0|0:0,0:0:0:0:
272,52,12485,2,0,P|221:63|187:116,1,70,2|0,0:0|0:0,0:0:0:0:
309,120,12834,1,2,0:0:0:0:
139,284,13182,6,0,P|104:238|111:193,1,70,2|0,0:0|0:0,0:0:0:0:
30,215,13531,1,2,0:0:0:0:
86,156,13706,1,0,0:0:0:0:
168,183,13880,1,2,0:0:0:0:
463,214,14229,2,0,L|494:129,4,70,2|0|2|0|2,0:0|0:0|0:0|0:0|0:0,0:0:0:0:
186,93,15275,1,2,0:0:0:0:
108,90,15450,1,0,0:0:0:0:
61,151,15624,1,2,0:0:0:0:
76,226,15799,1,0,0:0:0:0:
143,261,15973,1,2,0:0:0:0:
288,167,16322,2,0,P|346:155|375:122,1,70,2|0,0:0|0:0,0:0:0:0:
348,240,16671,2,0,P|406:206|424:180,2,70,2|0|2,0:0|0:0|0:0,0:0:0:0:
116,353,17368,6,0,P|53:305|31:242,2,140,2|2|2,0:0|0:0|0:0,0:0:0:0:
68,106,18415,1,2,0:0:0:0:
127,57,18589,1,0,0:0:0:0:
139,133,18764,1,2,0:0:0:0:
195,189,18938,2,0,P|219:138|194:83,1,70,0|2,0:0|0:0,0:0:0:0:
468,168,19461,2,0,P|452:120|415:80,1,70,2|0,0:0|0:0,0:0:0:0:
417,231,19810,2,0,P|371:230|337:242,1,70,2|0,0:0|0:0,0:0:0:0:
367,144,20159,1,2,0:0:0:0:
61,128,20508,2,0,P|93:101|166:86,3,70,2|0|2|0,0:0|0:0|0:0|0:0,0:0:0:0:
160,24,21206,1,2,0:0:0:0:
381,65,21555,6,0,L|432:151,1,70,2|0,0:0|0:0,0:0:0:0:
501,137,21903,2,0,L|480:214,1,70,2|0,0:0|0:0,0:0:0:0:
347,171,22252,1,2,0:0:0:0:
114,303,22601,1,2,0:0:0:0:
73,237,22775,1,0,0:0:0:0:
152,232,22950,1,2,0:0:0:0:
108,168,23124,1,0,0:0:0:0:
184,156,23299,1,2,0:0:0:0:
308,79,23648,2,0,P|336:78|381:118,1,70,2|0,0:0|0:0,0:0:0:0:
316,152,23996,1,2,0:0:0:0:
246,120,24171,1,0,0:0:0:0:
256,196,24345,1,2,0:0:0:0:
138,280,24694,2,0,L|75:366,2,70,2|0|2,0:0|0:0|0:0,0:0:0:0:
138,280,25217,2,0,L|172:352,1,70,0|2,0:0|0:0,0:0:0:0:
411,289,25741,6,0,P|401:224|453:162,1,140,2|2,0:0|0:0,0:0:0:0:
324,281,26438,1,2,0:0:0:0:
303,272,26787,1,2,0:0:0:0:
286,203,26961,2,0,P|252:216|229:264,1,70,0|2,0:0|0:0,0:0:0:0:
157,252,27310,2,0,P|168:200|196:170,1,70,0|2,0:0|0:0,0:0:0:0:
383,87,27834,2,0,P|416:124|483:126,3,70,2|0|2|0,0:0|0:0|0:0|0:0,0:0:0:0:
307,107,28531,1,2,0:0:0:0:
85,120,28880,2,0,L|55:202,1,70,2|0,0:0|0:0,0:0:0:0:
142,181,29229,2,0,L|176:270,2,70,2|0|2,0:0|0:0|0:0,0:0:0:0:
360,300,29927,6,0,P|363:243|405:207,1,70,2|0,0:0|0:0,0:0:0:0:
414,172,30275,1,2,0:0:0:0:
368,233,30450,1,0,0:0:0:0:
414,172,30624,1,2,0:0:0:0:
208,123,30973,2,0,P|148:82|97:103,1,70,2|0,0:0|0:0,0:0:0:0:
283,105,31322,2,0,P|282:147|253:191,2,70,2|0|2,0:0|0:0|0:0,0:0:0:0:
89,252,32020,1,2,0:0:0:0:
150,309,32194,1,0,0:0:0:0:
224,271,32368,1,2,0:0:0:0:
208,192,32543,1,0,0:0:0:0:
129,180,32717,1,2,0:0:0:0:
417,90,33066,2,0,P|447:130|434:189,3,70,2|0|2|0,0:0|0:0|0:0|0:0,0:0:0:0:
371,153,33764,1,2,0:0:0:0:
56,156,34113,6,0,P|88:112|176:120,1,140,2|2,0:0|0:0,0:0:0:0:
36,228,34810,1,2,0:0:0:0:
288,288,35159,2,0,P|283:253|290:219,1,70,2|0,0:0|0:0,0:0:0:0:
358,183,35508,2,0,P|363:148|356:114,2,70,2|0|0,0:0|0:0|0:0,0:0:0:0:
290,219,36031,1,0,0:0:0:0:
212,216,36206,1,4,0:1:0:0:
183,290,36380,2,0,P|227:294|267:274,1,70,0|2,0:0|0:0,0:0:0:0:
260,152,36729,2,0,P|209:137|164:152,1,70,0|4,0:0|0:1,0:0:0:0:
136,191,37078,1,0,0:0:0:0:
112,263,37252,2,0,P|70:232|56:200,2,70,2|0|4,0:0|0:0|0:1,0:0:0:0:
117,340,37775,1,0,0:0:0:0:
45,310,37950,1,2,0:0:0:0:
441,197,38299,5,4,0:1:0:0:
374,158,38473,1,0,0:0:0:0:
366,234,38648,1,2,0:0:0:0:
301,191,38822,1,0,0:0:0:0:
308,114,38996,1,2,0:0:0:0:
118,76,39345,2,0,P|63:52|36:18,2,70,2|0|2,0:0|0:0|0:0,0:0:0:0:
97,150,39868,2,0,P|40:155|0:142,1,70,0|2,0:0|0:0,0:0:0:0:
98,384,40392,1,4,0:1:0:0:
256,192,40566,12,2,42485,0:0:0:0:
192,183,42834,5,2,0:0:0:0:
316,185,43182,1,2,0:0:0:0:
409,307,43531,2,0,P|432:251|426:213,2,70,2|0|2,0:0|0:0|0:0,0:0:0:0:
351,255,44055,2,0,P|329:298|338:356,1,70,0|2,0:0|0:0,0:0:0:0:
252,303,44403,1,0,0:0:0:0:
179,337,44578,2,0,P|149:287|147:245,1,70,4|0,0:1|0:0,0:0:0:0:
128,200,44927,2,0,P|79:232|71:267,2,70,2|0|4,0:0|0:0|0:1,0:0:0:0:
200,226,45450,1,0,0:0:0:0:
182,147,45624,1,2,0:0:0:0:
107,124,45799,2,0,P|61:114|11:133,2,70,0|4|0,0:0|0:1|0:0,0:0:0:0:
158,66,46322,1,2,0:0:0:0:
440,197,46671,5,4,0:1:0:0:
440,197,46845,2,0,P|408:232|415:275,1,70,0|2,0:0|0:0,0:0:0:0:
338,280,47194,2,0,P|381:322|397:326,1,70,0|2,0:0|0:0,0:0:0:0:
109,269,47717,2,0,P|111:238|83:154,1,70,2|0,0:0|0:0,0:0:0:0:
186,212,48066,2,0,P|216:168|261:135,1,70,2|0,0:0|0:0,0:0:0:0:
137,131,48415,1,2,0:0:0:0:
98,384,48764,1,4,0:1:0:0:
256,192,48938,12,2,50857,0:0:0:0:
176,96,51206,5,2,0:0:0:0:
128,180,51555,1,2,0:0:0:0:
244,312,51903,2,0,P|296:280|304:248,1,70,2|0,0:0|0:0,0:0:0:0:
352,216,52252,2,0,P|384:272|388:312,2,70,2|0|2,0:0|0:0|0:0,0:0:0:0:
232,232,52775,1,0,0:0:0:0:
168,272,52950,2,0,P|120:284|84:312,3,70,4|0|2|0,0:1|0:0|0:0|0:0,0:0:0:0:
28,280,53648,2,0,P|56:240|112:208,1,70,4|0,0:1|0:0,0:0:0:0:
144,196,53996,1,2,0:0:0:0:
184,132,54171,1,0,0:0:0:0:
248,92,54345,2,0,L|284:188,2,70,4|0|2,0:1|0:0|0:0,0:0:0:0:
441,197,55043,5,4,0:1:0:0:
413,268,55217,2,0,P|374:238|361:195,1,70,0|2,0:0|0:0,0:0:0:0:
413,268,55566,2,0,P|359:288|324:279,1,70,0|2,0:0|0:0,0:0:0:0:
220,242,56089,2,0,P|185:214|136:208,1,70,2|0,0:0|0:0,0:0:0:0:
88,183,56438,2,0,P|64:154|64:79,2,70,2|0|2,0:0|0:0|0:0,0:0:0:0:
98,384,57136,1,4,0:1:0:0:
256,192,57310,12,2,59229,0:0:0:0:
83,203,59578,6,0,P|83:129|167:78,1,140,2|2,0:0|0:0,0:0:0:0:
343,241,60275,2,0,P|385:243|423:204,1,70,2|0,0:0|0:0,0:0:0:0:
263,253,60624,2,0,P|275:285|336:325,2,70,2|0|2,0:0|0:0|0:0,0:0:0:0:
290,180,61148,1,0,0:0:0:0:
210,137,61322,2,0,P|160:138|121:158,1,70,4|0,0:1|0:0,0:0:0:0:
96,230,61671,2,0,P|134:229|190:202,1,70,2|0,0:0|0:0,0:0:0:0:
238,239,62020,1,4,0:1:0:0:
193,301,62194,1,0,0:0:0:0:
267,320,62368,2,0,L|367:320,2,70,2|0|4,0:0|0:0|0:1,0:0:0:0:
131,343,62892,2,0,L|61:343,1,70,0|2,0:0|0:0,0:0:0:0:
440,197,63415,5,4,0:1:0:0:
385,251,63589,1,0,0:0:0:0:
365,176,63764,1,2,0:0:0:0:
417,120,63938,1,0,0:0:0:0:
491,135,64113,1,2,0:0:0:0:
274,114,64461,2,0,P|233:147|184:158,1,70,2|0,0:0|0:0,0:0:0:0:
86,161,64810,2,0,P|124:128|181:111,2,70,2|0|2,0:0|0:0|0:0,0:0:0:0:
98,384,65508,1,4,0:1:0:0:
256,192,65682,12,4,66555,0:1:0:0:
55,203,67601,6,0,P|36:149|101:81,1,140,4|2,0:1|0:0,0:0:0:0:
117,156,68124,2,0,L|208:194,1,70,0|2,0:0|0:0,0:0:0:0:
239,131,68473,1,0,0:0:0:0:
283,67,68648,2,8,P|320:128|279:203,1,140,8|2,0:1|0:0,0:0:0:0:
233,230,69171,2,0,P|191:259|178:309,2,70,0|2|0,0:0|0:0|0:0,0:0:0:0:
156,180,69694,1,8,0:0:0:0:
113,243,69868,1,0,0:0:0:0:
77,174,70043,2,0,P|131:110|169:114,2,70,2|0|2,0:0|0:0|0:0,0:0:0:0:
36,239,70566,1,0,0:0:0:0:
62,317,70741,2,0,P|130:319|170:288,1,70,8|0,0:1|0:0,0:0:0:0:
187,268,71089,2,0,P|221:262|255:269,1,70,2|0,0:0|0:0,0:0:0:0:
321,311,71438,1,2,0:0:0:0:
397,319,71613,1,0,0:0:0:0:
456,270,71787,5,4,0:1:0:0:
392,222,71961,2,0,P|350:182|343:143,1,70,0|2,0:0|0:0,0:0:0:0:
419,147,72310,2,0,P|450:114|461:75,1,70,0|2,0:0|0:0,0:0:0:0:
382,79,72659,1,0,0:0:0:0:
307,100,72834,1,8,0:1:0:0:
235,72,73008,2,0,B|223:56|203:71|185:85|171:71,1,70,0|2,0:0|0:0,0:0:0:0:
125,133,73357,1,0,0:0:0:0:
69,185,73531,2,0,P|123:211|171:192,1,70,2|0,0:0|0:0,0:0:0:0:
119,286,73880,2,0,P|182:265|199:175,2,140,8|2|2,0:0|0:0|0:0,0:0:0:0:
50,249,74752,1,0,0:0:0:0:
46,171,74927,2,0,L|86:93,2,70,8|0|2,0:1|0:0|0:0,0:0:0:0:
115,203,75450,2,0,L|189:145,2,70,0|2|0,0:0|0:0|0:0,0:0:0:0:
154,270,75973,6,0,P|172:299|201:318,1,70,4|0,0:1|0:0,0:0:0:0:
233,249,76322,2,0,P|261:268|280:297,2,70,2|0|2,0:0|0:0|0:0,0:0:0:0:
175,193,76845,1,0,0:0:0:0:
191,117,77020,1,8,0:1:0:0:
248,168,77194,1,0,0:0:0:0:
264,93,77368,1,2,0:0:0:0:
248,168,77543,1,0,0:0:0:0:
191,117,77717,1,2,0:0:0:0:
175,193,77892,1,0,0:0:0:0:
147,264,78066,2,0,P|69:261|41:239,2,70,8|0|2,0:0|0:0|0:0,0:0:0:0:
219,289,78589,2,0,P|285:288|325:310,1,70,0|2,0:0|0:0,0:0:0:0:
351,244,78938,1,0,0:0:0:0:
415,287,79113,2,0,P|431:221|407:185,2,70,8|0|2,0:1|0:0|0:0,0:0:0:0:
345,320,79636,1,0,0:0:0:0:
269,308,79810,2,0,P|213:298|170:317,1,70,2|0,0:0|0:0,0:0:0:0:
124,307,80159,6,0,P|68:280|70:199,1,140,4|2,0:1|0:0,0:0:0:0:
141,232,80682,1,0,0:0:0:0:
192,174,80857,2,0,P|216:208|217:245,1,70,2|0,0:0|0:0,0:0:0:0:
295,233,81206,1,8,0:1:0:0:
350,180,81380,2,0,P|400:146|457:143,2,70,0|2|0,0:0|0:0|0:0,0:0:0:0:
372,253,81903,1,2,0:0:0:0:
317,308,82078,1,0,0:0:0:0:
240,300,82252,2,0,L|139:300,1,70,8|0,0:0|0:0,0:0:0:0:
128,224,82601,2,0,L|216:224,1,70,2|0,0:0|0:0,0:0:0:0:
240,148,82950,2,0,L|139:148,1,70,2|0,0:0|0:0,0:0:0:0:
136,78,83299,2,0,P|95:45|31:43,2,70,8|0|2,0:1|0:0|0:0,0:0:0:0:
208,48,83822,1,2,0:0:0:0:
276,84,83996,1,2,0:0:0:0:
344,48,84171,1,2,0:0:0:0:
412,84,84345,5,4,0:1:0:0:
376,152,84520,2,0,P|424:180|449:226,1,70,0|2,0:0|0:0,0:0:0:0:
369,233,84868,2,0,P|321:205|296:159,1,70,0|2,0:0|0:0,0:0:0:0:
302,117,85217,1,0,0:0:0:0:
230,87,85392,1,8,0:1:0:0:
157,62,85566,2,0,L|47:30,1,70,0|2,0:0|0:0,0:0:0:0:
91,119,85915,2,0,L|-11:135,1,70,0|2,0:0|0:0,0:0:0:0:
42,204,86264,1,0,0:0:0:0:
40,280,86438,2,0,P|86:268|105:203,2,70,8|0|2,0:0|0:0|0:0,0:0:0:0:
18,354,86961,1,0,0:0:0:0:
95,348,87136,2,0,P|151:313|171:272,1,70,2|0,0:0|0:0,0:0:0:0:
191,244,87485,2,0,P|206:199|326:152,1,140,8|2,0:1|0:0,0:0:0:0:
357,147,88008,2,0,P|353:182|331:208,1,70,0|2,0:0|0:0,0:0:0:0:
267,251,88357,1,0,0:0:0:0:
191,244,88531,5,4,0:1:0:0:
150,178,88706,1,0,0:0:0:0:
158,102,88880,2,0,P|177:60|226:39,1,70,2|0,0:0|0:0,0:0:0:0:
236,111,89229,2,0,L|319:148,1,70,2|0,0:0|0:0,0:0:0:0:
247,196,89578,2,0,P|308:215|374:172,1,140,8|2,0:1|0:0,0:0:0:0:
370,101,90101,1,0,0:0:0:0:
296,77,90275,2,0,P|251:68|205:95,1,70,2|0,0:0|0:0,0:0:0:0:
163,116,90624,2,0,P|114:174|124:229,2,70,8|0|2,0:0|0:0|0:0,0:0:0:0:
195,186,91148,2,0,P|208:247|239:281,1,70,0|2,0:0|0:0,0:0:0:0:
268,315,91496,1,0,0:0:0:0:
343,297,91671,2,0,P|387:278|426:223,1,70,8|0,0:1|0:0,0:0:0:0:
458,209,92020,1,2,0:0:0:0:
490,139,92194,1,0,0:0:0:0:
471,64,92368,1,2,0:0:0:0:
401,30,92543,1,0,0:0:0:0:
330,61,92717,6,0,B|279:27|272:157|212:101,1,140,4|2,0:1|0:0,0:0:0:0:
202,182,93241,2,0,P|156:153|145:104,2,70,0|2|0,0:0|0:0|0:0,0:0:0:0:
279,184,93764,1,8,0:1:0:0:
338,135,93938,1,0,0:0:0:0:
394,82,94113,2,0,P|413:130|392:185,1,70,2|0,0:0|0:0,0:0:0:0:
367,210,94461,2,0,P|359:266|372:304,1,70,2|0,0:0|0:0,0:0:0:0:
438,283,94810,2,0,P|425:331|309:330,1,140,8|2,0:0|0:0,0:0:0:0:
274,325,95334,2,0,L|201:266,1,70,0|2,0:0|0:0,0:0:0:0:
160,231,95682,1,0,0:0:0:0:
99,279,95857,2,0,P|81:237|101:167,1,70,8|0,0:1|0:0,0:0:0:0:
91,136,96206,2,0,P|139:84|196:76,1,70,2|0,0:0|0:0,0:0:0:0:
209,59,96555,2,0,P|262:54|320:82,1,70,2|0,0:0|0:0,0:0:0:0:
345,93,96903,6,0,P|366:141|305:228,1,140,4|2,0:1|0:0,0:0:0:0:
261,249,97427,1,0,0:0:0:0:
184,254,97601,1,2,0:0:0:0:
113,222,97775,1,0,0:0:0:0:
77,153,97950,2,0,P|73:121|98:58,2,70,8|0|2,0:1|0:0|0:0,0:0:0:0:
149,126,98473,2,0,P|173:87|228:61,1,70,0|2,0:0|0:0,0:0:0:0:
269,72,98822,1,0,0:0:0:0:
337,106,98996,2,0,P|373:135|358:237,1,140,8|2,0:0|0:0,0:0:0:0:
431,272,99520,2,0,P|396:295|316:283,1,70,0|2,0:0|0:0,0:0:0:0:
305,256,99868,1,0,0:0:0:0:
229,238,100043,1,8,0:1:0:0:
166,192,100217,1,0,0:0:0:0:
136,120,100392,1,2,0:0:0:0:
138,43,100566,1,0,0:0:0:0:
136,120,100741,1,2,0:0:0:0:
138,43,100915,1,0,0:0:0:0:
203,83,101089,5,4,0:1:0:0:
136,55,117834,6,0,P|123:117|58:182,2,140,2|2|2,0:0|0:0|0:0,0:0:0:0:
376,246,118880,2,0,P|418:226|437:155,1,70,2|0,0:0|0:0,0:0:0:0:
364,169,119229,2,0,P|349:123|300:93,1,70,2|0,0:0|0:0,0:0:0:0:
303,222,119578,1,2,0:0:0:0:
121,276,119927,2,0,P|80:304|75:356,1,70,2|0,0:0|0:0,0:0:0:0:
145,345,120275,1,2,0:0:0:0:
196,287,120450,1,0,0:0:0:0:
165,215,120625,1,2,0:0:0:0:
360,108,120973,2,0,L|423:188,3,70,2|0|2|0,0:0|0:0|0:0|0:0,0:0:0:0:
451,223,121671,1,2,0:0:0:0:
141,259,122020,5,2,0:0:0:0:
141,259,122194,1,0,0:0:0:0:
141,259,122368,1,2,0:0:0:0:
141,259,122543,1,0,0:0:0:0:
141,259,122717,1,2,0:0:0:0:
261,116,123066,2,0,P|311:88|375:87,1,70,2|0,0:0|0:0,0:0:0:0:
425,118,123415,2,0,P|392:143|339:161,2,70,2|0|2,0:0|0:0|0:0,0:0:0:0:
294,316,124113,2,0,P|231:322|189:341,2,70,2|0|2,0:0|0:0|0:0,0:0:0:0:
371,320,124636,1,0,0:0:0:0:
446,335,124810,1,2,0:0:0:0:
96,207,125159,1,2,0:0:0:0:
71,133,125334,1,0,0:0:0:0:
146,148,125508,1,2,0:0:0:0:
196,90,125682,1,0,0:0:0:0:
222,162,125857,1,2,0:0:0:0:
322,241,126206,5,2,0:0:0:0:
429,351,126555,1,2,0:0:0:0:
484,207,126903,1,2,0:0:0:0:
206,76,127252,2,0,B|182:48|139:113|115:36,4,70,2|0|2|0|2,0:0|0:0|0:0|0:0|0:0,0:0:0:0:
102,316,128299,2,0,P|99:258|141:211,1,70,2|0,0:0|0:0,0:0:0:0:
170,286,128648,2,0,P|204:251|258:239,1,70,2|0,0:0|0:0,0:0:0:0:
295,216,128996,1,2,0:0:0:0:
406,55,129345,2,0,P|423:96|422:145,1,70,2|0,0:0|0:0,0:0:0:0:
382,185,129694,1,2,0:0:0:0:
316,144,129868,2,0,P|299:103|300:54,1,70,0|2,0:0|0:0,0:0:0:0:
97,322,130392,6,0,P|79:272|92:212,1,70,2|0,0:0|0:0,0:0:0:0:
97,322,130741,2,0,P|135:265|163:259,2,70,2|0|2,0:0|0:0|0:0,0:0:0:0:
279,146,131438,2,0,B|286:111|286:111|356:89,1,70,2|0,0:0|0:0,0:0:0:0:
393,81,131787,2,0,P|392:127|364:161,1,70,2|0,0:0|0:0,0:0:0:0:
328,204,132136,1,2,0:0:0:0:
168,208,132485,2,0,P|151:173|113:147,1,70,2|0,0:0|0:0,0:0:0:0:
52,170,132834,2,0,P|72:208|111:233,1,70,2|0,0:0|0:0,0:0:0:0:
144,281,133182,1,2,0:0:0:0:
409,264,133531,2,0,P|384:236|329:216,2,70,2|0|2,0:0|0:0|0:0,0:0:0:0:
391,339,134055,1,0,0:0:0:0:
314,339,134229,1,2,0:0:0:0:
69,189,134578,6,0,B|77:118|77:118|183:65,1,140,2|2,0:0|0:0,0:0:0:0:
34,255,135275,1,0,0:0:0:0:
210,330,135624,2,0,P|256:293|270:255,1,70,2|0,0:0|0:0,0:0:0:0:
328,321,135973,2,0,P|341:266|326:218,1,70,2|0,0:0|0:0,0:0:0:0:
274,211,136322,1,2,0:0:0:0:
241,141,136496,1,0,0:0:0:0:
166,160,136671,2,0,P|172:102|211:72,1,70,4|0,0:1|0:0,0:0:0:0:
249,65,137020,2,0,P|296:85|315:118,1,70,2|0,0:0|0:0,0:0:0:0:
307,175,137368,2,0,P|271:210|217:210,1,70,4|0,0:1|0:0,0:0:0:0:
176,201,137717,1,2,0:0:0:0:
114,154,137892,1,0,0:0:0:0:
84,83,138066,1,4,0:1:0:0:
160,95,138241,1,0,0:0:0:0:
232,68,138415,1,2,0:0:0:0:
408,255,138764,6,0,P|367:307|326:317,1,70,2|0,0:0|0:0,0:0:0:0:
361,198,139113,2,0,P|317:216|259:213,1,70,2|0,0:0|0:0,0:0:0:0:
436,188,139461,1,2,0:0:0:0:
105,255,139810,2,0,P|146:307|187:317,1,70,2|0,0:0|0:0,0:0:0:0:
152,198,140159,2,0,P|196:216|254:213,1,70,2|0,0:0|0:0,0:0:0:0:
77,188,140507,1,2,0:0:0:0:
98,384,140857,1,4,0:1:0:0:
256,192,141031,12,0,142950,0:0:0:0:
208,184,143299,6,0,P|260:228|304:172,1,140
394,62,143996,2,0,P|423:98|436:153,1,70,2|0,0:0|0:0,0:0:0:0:
440,196,144345,2,0,P|432:233|399:284,1,70,2|0,0:0|0:0,0:0:0:0:
362,315,144694,2,0,P|331:334|256:341,1,70,2|0,0:0|0:0,0:0:0:0:
221,343,145043,1,4,0:1:0:0:
181,276,145217,1,0,0:0:0:0:
104,288,145392,2,0,P|108:241|140:208,2,70,2|0|4,0:0|0:0|0:1,0:0:0:0:
145,353,145915,1,0,0:0:0:0:
221,343,146089,2,0,P|263:318|281:246,1,70,2|0,0:0|0:0,0:0:0:0:
276,223,146438,1,4,0:1:0:0:
265,146,146613,1,0,0:0:0:0:
250,70,146787,1,2,0:0:0:0:
439,193,147136,5,4,0:1:0:0:
402,260,147310,1,0,0:0:0:0:
337,302,147485,1,2,0:0:0:0:
264,328,147659,2,0,P|222:337|153:323,1,70,0|2,0:0|0:0,0:0:0:0:
120,88,148182,2,0,P|152:53|213:45,1,70,2|0,0:0|0:0,0:0:0:0:
57,133,148531,2,0,P|42:75|56:30,1,70,2|0,0:0|0:0,0:0:0:0:
126,165,148880,1,2,0:0:0:0:
98,384,149229,1,4,0:1:0:0:
256,192,149403,12,2,151322,0:0:0:0:
71,106,151671,5,0,0:0:0:0:
221,72,152020,1,0,0:0:0:0:
220,304,152368,2,0,P|208:244|222:203,1,70,2|0,0:0|0:0,0:0:0:0:
304,236,152717,2,0,P|304:270|293:303,2,70,2|0|2,0:0|0:0|0:0,0:0:0:0:
256,176,153241,1,0,0:0:0:0:
180,160,153415,2,0,P|224:104|256:100,2,70,2|0|4,0:0|0:0|0:1,0:0:0:0:
256,176,153938,1,0,0:0:0:0:
332,160,154113,2,0,P|288:104|256:100,2,70,4|0|2,0:1|0:0|0:0,0:0:0:0:
308,232,154636,1,0,0:0:0:0:
356,291,154810,2,0,P|323:308|251:272,1,70,4|0,0:1|0:0,0:0:0:0:
225,265,155159,1,2,0:0:0:0:
442,216,155508,6,0,P|468:178|474:108,1,70,4|0,0:1|0:0,0:0:0:0:
378,110,155857,2,0,P|352:148|346:218,1,70,2|0,0:0|0:0,0:0:0:0:
364,248,156206,1,2,0:0:0:0:
50,62,156555,1,2,0:0:0:0:
126,69,156729,1,0,0:0:0:0:
121,145,156903,2,0,P|161:140|192:90,2,70,2|0|2,0:0|0:0|0:0,0:0:0:0:
98,384,157601,1,4,0:1:0:0:
