osu file format v14

[General]
AudioFilename: 105 Go Novice Alchemist.mp3
AudioLeadIn: 2000
PreviewTime: 257
Countdown: 0
SampleSet: Soft
StackLeniency: 0.8
Mode: 3
LetterboxInBreaks: 0
EpilepsyWarning: 1
SpecialStyle: 0
WidescreenStoryboard: 1

[Editor]
Bookmarks: 58993,61308,66770,74596
DistanceSpacing: 0.8
BeatDivisor: 4
GridSize: 4
TimelineZoom: 0.9999999

[Metadata]
Title:Go! Go! Novice Alchemist (Workshop)
TitleUnicode:それいけ新米錬金術士(工房)
Artist:Ken Nakagawa, Daisuke Achiwa
ArtistUnicode:中河 健, 阿知波 大輔
Creator:schwarzvgrune
Version:Insane
Source:Atelier Iris 2: The Azoth of Destiny
Tags:Eternal Mana イリスのアトリエ エターナルマナ2 Gust NIS ikin5050 Nardoxyribonucleic
BeatmapID:631305
BeatmapSetID:273267

[Difficulty]
HPDrainRate:7.5
CircleSize:4
OverallDifficulty:7.5
ApproachRate:0
SliderMultiplier:1.99
SliderTickRate:1

[Events]
//Background and Video events
0,0,"atelier iris 2.jpg",0,0
//Break Periods
//Storyboard Layer 0 (Background)
//Storyboard Layer 1 (Fail)
//Storyboard Layer 2 (Pass)
//Storyboard Layer 3 (Foreground)
//Storyboard Sound Samples

[TimingPoints]
-3615,326.086956521739,3,2,1,40,1,0
4211,-100,3,2,1,40,0,1
11058,-100,3,2,1,40,0,0
58993,-100,3,2,1,40,0,1
82471,-100,3,2,1,40,0,0

[HitObjects]
192,192,257,5,0,0:0:0:70:B6W_ss.wav
320,192,298,1,2,0:0:0:40:
448,192,338,128,0,624:0:0:0:70:C7W_s.wav
64,192,338,1,2,0:0:0:40:
320,192,624,128,0,950:0:0:0:70:G6W_s.wav
64,192,950,128,0,1276:0:0:0:70:E6W_s.wav
448,192,1276,128,0,1928:0:0:0:70:A6W_s.wav
192,192,1276,1,2,0:0:0:40:
320,192,1276,1,0,0:0:0:40:
320,192,1928,128,0,2254:0:0:0:70:G6W_ss.wav
448,192,2254,1,2,0:0:0:40:
64,192,2254,1,0,0:0:0:70:E6W_ss.wav
192,192,2308,1,0,0:0:0:70:F6W_ss.wav
320,192,2417,128,0,2743:0:0:0:70:G6W_ss.wav
448,192,2743,128,0,3069:0:0:0:70:A6W_ss.wav
192,192,3069,128,0,3232:0:0:0:70:F6W_ss.wav
64,192,3232,1,4,0:0:0:40:
448,192,3232,1,0,0:0:0:70:G6W_ss.wav
320,192,3232,1,0,0:0:0:0:
64,192,3558,1,4,0:0:0:40:
448,192,3558,1,0,0:0:0:70:G6W_ss.wav
320,192,3558,1,0,0:0:0:0:
64,192,4211,128,0,4700:0:0:0:70:F6W_s.wav
448,192,4211,1,0,0:0:0:40:
320,192,4211,1,4,0:0:0:40:
192,192,4374,1,2,0:0:0:40:
320,192,4455,1,2,0:0:0:40:
448,192,4537,1,2,0:0:0:40:
192,192,4537,1,0,0:0:0:40:
320,192,4700,1,0,0:0:0:40:
448,192,4700,1,0,0:0:0:70:F6W_ss.wav
64,192,4863,1,0,0:0:0:40:
320,192,5026,1,0,0:0:0:40:
448,192,5189,1,4,0:0:0:40:
192,192,5189,1,0,0:0:0:40:
64,192,5189,1,0,0:0:0:70:E6W_ss.wav
320,192,5352,1,2,0:0:0:40:
192,192,5433,1,2,0:0:0:40:
64,192,5515,1,2,0:0:0:40:
320,192,5515,1,0,0:0:0:40:
192,192,5678,1,2,0:0:0:40:
320,192,5759,1,2,0:0:0:40:
448,192,5841,1,0,0:0:0:40:
192,192,5841,1,0,0:0:0:40:
320,192,6004,1,2,0:0:0:40:
448,192,6167,128,0,6656:0:0:0:70:D6W_s.wav
192,192,6167,1,0,0:0:0:40:
64,192,6167,1,4,0:0:0:40:
320,192,6330,1,2,0:0:0:40:
192,192,6412,1,2,0:0:0:40:
64,192,6493,1,2,0:0:0:40:
320,192,6493,1,0,0:0:0:40:
64,192,6656,1,0,0:0:0:40:
192,192,6656,1,0,0:0:0:70:G6W_ss.wav
448,192,6819,1,0,0:0:0:40:
192,192,6982,1,0,0:0:0:40:
64,192,7145,1,4,0:0:0:40:
320,192,7145,1,0,0:0:0:40:
448,192,7145,1,0,0:0:0:70:E6W_ss.wav
192,192,7308,1,2,0:0:0:40:
320,192,7390,1,2,0:0:0:40:
192,192,7471,1,2,0:0:0:40:
64,192,7471,1,0,0:0:0:40:
320,192,7634,1,2,0:0:0:40:
192,192,7716,1,2,0:0:0:40:
320,192,7798,1,0,0:0:0:40:
448,192,7798,1,0,0:0:0:40:
192,192,7961,1,2,0:0:0:40:
448,192,8124,1,0,0:0:0:40:
320,192,8124,1,4,0:0:0:40:
64,192,8124,128,0,8613:0:0:0:70:F6W_s.wav
192,192,8287,1,2,0:0:0:40:
320,192,8368,1,2,0:0:0:40:
448,192,8450,1,2,0:0:0:40:
192,192,8450,1,0,0:0:0:40:
320,192,8613,1,0,0:0:0:40:
448,192,8613,1,0,0:0:0:70:F6W_ss.wav
64,192,8776,1,0,0:0:0:40:
320,192,8939,1,0,0:0:0:40:
448,192,9102,1,4,0:0:0:40:
192,192,9102,1,0,0:0:0:40:
64,192,9102,1,0,0:0:0:70:E6W_ss.wav
320,192,9265,1,2,0:0:0:40:
192,192,9346,1,2,0:0:0:40:
64,192,9428,1,2,0:0:0:40:
320,192,9428,1,0,0:0:0:40:
192,192,9591,1,2,0:0:0:40:
320,192,9673,1,2,0:0:0:40:
448,192,9754,1,0,0:0:0:40:
192,192,9754,1,0,0:0:0:40:
320,192,9917,1,2,0:0:0:40:
64,192,10080,1,4,0:0:0:40:
448,192,10080,128,0,10569:0:0:0:70:D6W_s.wav
192,192,10080,1,0,0:0:0:40:
320,192,10243,1,2,0:0:0:40:
192,192,10325,1,2,0:0:0:40:
64,192,10406,1,2,0:0:0:40:
320,192,10406,1,0,0:0:0:40:
320,192,10569,1,4,0:0:0:50:
192,192,10569,1,0,0:0:0:70:E6W_ss.wav
448,192,10732,1,4,0:0:0:60:
64,192,10732,1,0,0:0:0:40:
320,192,10895,1,4,0:0:0:70:
192,192,10895,1,0,0:0:0:40:
320,192,11058,1,2,0:0:0:40:
448,192,11058,1,4,0:0:0:80:
64,192,11058,1,0,0:0:0:70:C6W_ss.wav
192,192,11058,1,0,0:0:0:40:
448,192,11384,1,0,0:0:0:40:
192,192,11384,1,0,0:0:0:40:
192,192,11548,1,0,0:0:0:40:
448,192,11548,1,0,0:0:0:40:
320,192,11711,1,0,0:0:0:40:
64,192,11711,128,2,11874:0:0:0:70:C6W_ss.wav
448,192,11874,1,0,0:0:0:80:
192,192,11874,128,2,12037:0:0:0:70:D6W_ss.wav
256,192,12037,128,2,12526:0:0:0:70:E6W_s.wav
64,192,12037,128,0,12363:0:0:0:40:C6W_s.wav
448,192,12363,1,0,0:0:0:40:E6W_ss.wav
64,192,12689,128,2,13015:0:0:0:70:C6W_s.wav
448,192,12689,1,0,0:0:0:40:E6W_ss.wav
320,192,13015,128,2,13341:0:0:0:70:D6W_s.wav
448,192,13015,128,0,13341:0:0:0:40:G5W_s.wav
192,192,13341,128,2,13667:0:0:0:70:C6W_s.wav
64,192,13341,1,0,0:0:0:40:D6W_ss.wav
448,192,13667,128,2,13993:0:0:0:70:G6W_s.wav
64,192,13667,1,0,0:0:0:40:D6W_ss.wav
64,192,13993,128,2,14645:0:0:0:70:D6W_s.wav
320,192,13993,128,0,14319:0:0:0:40:A5W_s.wav
448,192,14319,1,0,0:0:0:40:E6W_ss.wav
192,192,14645,128,2,14971:0:0:0:70:E6W_s.wav
448,192,14645,1,0,0:0:0:40:E6W_ss.wav
64,192,14971,128,2,15461:0:0:0:70:C6W_s.wav
320,192,14971,128,0,15298:0:0:0:40:A5W_s.wav
448,192,15298,1,0,0:0:0:40:E6W_ss.wav
448,192,15624,1,0,0:0:0:40:E6W_ss.wav
320,192,15624,128,2,15787:0:0:0:70:C6W_ss.wav
320,192,15950,128,2,16602:0:0:0:70:C6W_s.wav
64,192,15950,128,0,16276:0:0:0:40:A#5W_s.wav
448,192,16276,1,0,0:0:0:40:F6W_ss.wav
448,192,16602,1,0,0:0:0:40:F6W_ss.wav
192,192,16602,128,2,16765:0:0:0:70:A#5W_ss.wav
192,192,16928,128,2,17254:0:0:0:70:A#5W_s.wav
448,192,16928,128,0,17254:0:0:0:40:G5W_s.wav
64,192,17254,128,2,17580:0:0:0:70:G5W_s.wav
320,192,17254,1,0,0:0:0:40:D6W_ss.wav
448,192,17580,128,2,17906:0:0:0:70:D6W_s.wav
320,192,17580,1,0,0:0:0:40:D6W_ss.wav
192,192,17906,128,2,18721:0:0:0:70:C6W_s.wav
64,192,17906,128,0,18232:0:0:0:40:C6W_s.wav
448,192,18232,1,0,0:0:0:40:G6W_ss.wav
448,192,18558,1,0,0:0:0:40:G6W_ss.wav
64,192,18884,128,2,19211:0:0:0:40:B5W_s.wav
320,192,18884,1,2,0:0:0:40:B5W_s.wav
192,192,19211,128,2,19537:0:0:0:40:C6W_s.wav
448,192,19211,1,2,0:0:0:40:C6W_s.wav
64,192,19537,1,2,0:0:0:40:D6W_s.wav
320,192,19537,128,2,19863:0:0:0:40:D6W_s.wav
448,192,19863,128,2,20352:0:0:0:80:E6W_s.wav
192,192,19863,1,0,0:0:0:40:C6W_s.wav
192,192,20189,1,8,0:0:0:40:
320,192,20189,1,0,0:0:0:40:E6W_ss.wav
64,192,20515,128,2,20841:0:0:0:70:C6W_s.wav
192,192,20515,1,8,0:0:0:40:
320,192,20515,1,0,0:0:0:40:E6W_ss.wav
192,192,20841,128,2,21167:0:0:0:70:D6W_s.wav
448,192,20841,1,0,0:0:0:40:G5W_s.wav
64,192,21167,128,2,21493:0:0:0:70:C6W_s.wav
320,192,21167,1,8,0:0:0:40:
448,192,21167,1,0,0:0:0:40:D6W_ss.wav
320,192,21493,128,2,21819:0:0:0:70:G6W_s.wav
192,192,21493,1,0,0:0:0:40:D6W_ss.wav
64,192,21819,1,0,0:0:0:40:A5W_s.wav
448,192,21819,128,2,22471:0:0:0:70:A6W_s.wav
64,192,22145,1,8,0:0:0:40:
192,192,22145,1,0,0:0:0:40:E6W_ss.wav
64,192,22471,1,8,0:0:0:40:
192,192,22471,1,0,0:0:0:40:E6W_ss.wav
320,192,22471,128,2,22634:0:0:0:70:E6W_ss.wav
320,192,22798,128,2,23287:0:0:0:70:E6W_s.wav
192,192,22798,1,0,0:0:0:40:A5W_s.wav
64,192,23124,1,8,0:0:0:40:
448,192,23124,1,0,0:0:0:40:E6W_ss.wav
448,192,23450,1,0,0:0:0:40:E6W_ss.wav
192,192,23450,128,2,23613:0:0:0:70:C6W_ss.wav
192,192,23776,128,2,24428:0:0:0:70:C6W_s.wav
64,192,23776,1,0,0:0:0:40:A#5W_s.wav
320,192,24102,1,8,0:0:0:40:
448,192,24102,1,0,0:0:0:40:F6W_ss.wav
320,192,24428,1,8,0:0:0:40:
448,192,24428,1,0,0:0:0:40:F6W_ss.wav
64,192,24428,128,2,24591:0:0:0:70:A#5W_ss.wav
64,192,24754,128,2,25080:0:0:0:70:A#5W_s.wav
192,192,24754,1,0,0:0:0:40:G5W_s.wav
192,192,25080,128,2,25406:0:0:0:70:D6W_s.wav
448,192,25080,1,8,0:0:0:40:
320,192,25080,1,0,0:0:0:40:D6W_ss.wav
475,192,25406,128,2,25732:0:0:0:70:A6W_s.wav
320,192,25406,1,0,0:0:0:40:D6W_ss.wav
320,192,25732,128,2,27689:0:0:0:70:G6W.wav
192,192,25732,1,0,0:0:0:40:C6W_s.wav
64,192,25732,1,0,0:0:0:40:C6W_s.wav
192,192,26058,1,8,0:0:0:40:
448,192,26058,1,0,0:0:0:40:G6W_ss.wav
192,192,26384,1,8,0:0:0:40:
448,192,26384,1,0,0:0:0:40:G6W_ss.wav
448,192,26711,1,0,0:0:0:40:
64,192,26711,1,0,0:0:0:40:C6W_s.wav
64,192,26874,1,0,0:0:0:80:
192,192,27037,1,8,0:0:0:40:
448,192,27037,1,0,0:0:0:40:G6W_ss.wav
64,192,27200,1,0,0:0:0:80:
192,192,27363,1,0,0:0:0:40:
448,192,27363,1,0,0:0:0:40:G6W_ss.wav
64,192,27526,1,0,0:0:0:80:
64,192,27689,1,2,0:0:0:40:E6W_ss.wav
192,192,27689,1,4,0:0:0:40:
448,192,27689,1,2,0:0:0:40:
320,192,28015,1,0,0:0:0:40:
36,192,28015,128,0,28178:0:0:0:90:A6W_ss.wav
448,192,28178,1,0,0:0:0:40:
192,192,28178,128,0,28341:0:0:0:90:B6W_ss.wav
64,192,28341,1,0,0:0:0:40:
329,192,28341,128,0,28504:0:0:0:90:C7W_ss.wav
192,192,28504,1,0,0:0:0:40:
64,192,28667,1,2,0:0:0:40:
448,192,28667,1,4,0:0:0:40:
320,192,28667,1,0,0:0:0:40:
192,192,28830,1,0,0:0:0:40:
320,192,28993,1,0,0:0:0:40:
448,192,28993,128,0,29156:0:0:0:90:B6W_ss.wav
64,192,29156,1,0,0:0:0:40:
192,192,29238,1,0,0:0:0:40:
448,192,29319,1,0,0:0:0:40:
320,192,29319,128,0,29482:0:0:0:90:G6W_ss.wav
192,192,29482,1,0,0:0:0:40:
320,192,29645,1,4,0:0:0:40:
448,192,29645,1,2,0:0:0:40:
64,192,29645,1,0,0:0:0:40:
448,192,29971,1,0,0:0:0:40:
320,192,29971,128,0,30134:0:0:0:90:A6W_ss.wav
192,192,30134,1,0,0:0:0:40:
64,192,30134,128,0,30298:0:0:0:90:E6W_ss.wav
320,192,30298,1,0,0:0:0:40:
448,192,30298,128,0,30461:0:0:0:90:E7W_ss.wav
192,192,30461,1,0,0:0:0:40:
320,192,30624,1,4,0:0:0:40:
192,192,30624,128,0,30787:0:0:0:90:A6W_ss.wav
64,192,30624,1,2,0:0:0:40:
448,192,30787,1,0,0:0:0:40:
64,192,30950,1,0,0:0:0:40:
320,192,30950,1,0,0:0:0:40:A6W_ss.wav
192,192,31113,1,0,0:0:0:40:
64,192,31113,1,0,0:0:0:40:E6W_ss.wav
320,192,31276,1,0,0:0:0:40:
192,192,31276,1,0,0:0:0:70:E6W_ss.wav
448,192,31276,1,0,0:0:0:40:E7W_ss.wav
320,192,31439,1,0,0:0:0:40:
448,192,31602,1,4,0:0:0:40:
64,192,31602,1,2,0:0:0:70:F6W_s.wav
192,192,31602,1,0,0:0:0:40:A6W_ss.wav
448,192,31928,1,2,0:0:0:40:
192,192,31928,1,0,0:0:0:40:
320,192,32091,1,0,0:0:0:40:
448,192,32254,1,2,0:0:0:40:
64,192,32254,1,0,0:0:0:40:
192,192,32254,1,2,0:0:0:70:C7W_ss.wav
192,192,32417,1,0,0:0:0:40:
320,192,32580,1,0,0:0:0:40:
448,192,32580,1,4,0:0:0:40:
64,192,32580,1,2,0:0:0:70:B6W_s.wav
320,192,32743,1,0,0:0:0:40:
448,192,32906,1,2,0:0:0:40:
192,192,32906,1,0,0:0:0:40:
64,192,33069,1,0,0:0:0:40:
320,192,33069,1,2,0:0:0:70:C7W_ss.wav
192,192,33151,1,0,0:0:0:40:
64,192,33232,1,0,0:0:0:40:
320,192,33232,1,2,0:0:0:40:
448,192,33232,1,2,0:0:0:70:D7W_ss.wav
192,192,33395,1,0,0:0:0:40:
64,192,33395,1,2,0:0:0:70:G6W_ss.wav
320,192,33558,1,4,0:0:0:40:
192,192,33558,1,0,0:0:0:40:
448,192,33558,1,2,0:0:0:70:E7W.wav
448,192,33884,1,2,0:0:0:40:
64,192,33884,1,0,0:0:0:70:C6W_s.wav
192,192,33884,1,0,0:0:0:40:
320,192,34048,1,0,0:0:0:40:
64,192,34211,1,2,0:0:0:40:
192,192,34211,1,0,0:0:0:70:D6W_s.wav
448,192,34211,1,0,0:0:0:40:
64,192,34374,1,0,0:0:0:40:
448,192,34537,1,0,0:0:0:40:
192,192,34537,1,4,0:0:0:40:
320,192,34537,1,0,0:0:0:70:E6W_s.wav
320,192,34700,1,0,0:0:0:40:
64,192,34863,1,2,0:0:0:40:
192,192,34863,1,0,0:0:0:70:D6W_s.wav
448,192,34863,1,0,0:0:0:40:
320,192,35026,1,0,0:0:0:40:
448,192,35189,1,2,0:0:0:40:
192,192,35189,1,2,0:0:0:85:C7W_ss.wav
64,192,35189,1,0,0:0:0:70:C6W_s.wav
320,192,35352,1,2,0:0:0:85:D7W_ss.wav
192,192,35352,1,0,0:0:0:40:
320,192,35515,1,4,0:0:0:40:
448,192,35515,1,2,0:0:0:85:F7W_s.wav
64,192,35515,1,0,0:0:0:40:
192,192,35841,1,2,0:0:0:40:
448,192,35841,1,0,0:0:0:40:
320,192,36004,1,2,0:0:0:85:E7W_ss.wav
64,192,36004,1,0,0:0:0:40:
448,192,36167,1,2,0:0:0:40:
192,192,36167,1,2,0:0:0:85:C7W_s.wav
64,192,36167,1,0,0:0:0:40:
320,192,36330,1,0,0:0:0:40:
64,192,36493,1,0,0:0:0:40:
320,192,36493,1,2,0:0:0:85:D7W_ss.wav
448,192,36493,1,4,0:0:0:40:
192,192,36548,1,0,0:0:0:85:E7W_ss.wav
320,192,36602,1,2,0:0:0:85:D7W_s.wav
448,192,36656,1,0,0:0:0:40:
64,192,36819,1,2,0:0:0:40:
320,192,36819,1,0,0:0:0:40:
192,192,36982,1,0,0:0:0:40:
320,192,37064,1,0,0:0:0:40:
192,192,37145,1,2,0:0:0:85:C7W_ss.wav
448,192,37145,1,2,0:0:0:40:
64,192,37145,1,0,0:0:0:40:
320,192,37308,1,2,0:0:0:85:D7W_ss.wav
64,192,37308,1,0,0:0:0:40:
475,192,37471,1,2,0:0:0:85:E7W_s.wav
320,192,37471,1,0,0:0:0:40:
192,192,37471,1,4,0:0:0:40:
448,192,37798,1,2,0:0:0:40:
320,192,37798,1,2,0:0:0:85:D7W_s.wav
64,192,37798,1,0,0:0:0:40:
64,192,37961,1,0,0:0:0:40:
320,192,38124,1,2,0:0:0:40:
448,192,38124,1,2,0:0:0:85:G7W_s.wav
192,192,38124,1,0,0:0:0:40:
320,192,38287,1,0,0:0:0:40:
64,192,38450,1,4,0:0:0:40:
192,192,38450,1,2,0:0:0:85:C7W_ss.wav
448,192,38450,1,0,0:0:0:40:
320,192,38504,1,0,0:0:0:85:D7W_ss.wav
192,192,38558,1,2,0:0:0:85:C7W_s.wav
64,192,38613,1,0,0:0:0:40:
448,192,38776,1,2,0:0:0:40:
192,192,38776,1,0,0:0:0:40:
320,192,38939,1,0,0:0:0:40:
192,192,39102,1,2,0:0:0:40:
448,192,39102,1,0,0:0:0:40:
64,192,39265,1,0,0:0:0:40:
448,192,39428,1,4,0:0:0:40:
320,192,39428,1,0,0:0:0:40:
192,192,39428,1,2,0:0:0:70:D7W_s.wav
64,192,39754,1,2,0:0:0:70:C7W_ss.wav
320,192,39754,1,2,0:0:0:40:
448,192,39754,1,0,0:0:0:40:
192,192,39917,1,0,0:0:0:40:
64,192,40080,1,2,0:0:0:70:C7W_ss.wav
448,192,40080,1,2,0:0:0:40:
320,192,40080,1,0,0:0:0:40:
64,192,40243,1,0,0:0:0:40:
192,192,40406,1,0,0:0:0:40:
448,192,40406,1,4,0:0:0:40:
320,192,40406,1,2,0:0:0:70:D7W_s.wav
320,192,40569,1,0,0:0:0:40:
448,192,40732,1,2,0:0:0:40:
64,192,40732,1,0,0:0:0:40:
320,192,40895,1,0,0:0:0:40:
192,192,40977,1,0,0:0:0:40:
320,192,41058,1,2,0:0:0:40:
448,192,41058,1,2,0:0:0:70:C7W_s.wav
64,192,41058,1,0,0:0:0:40:
320,192,41384,1,0,0:0:0:40:
192,192,41384,1,4,0:0:0:40:
64,192,41384,1,2,0:0:0:70:B6W_s.wav
448,192,41548,1,0,0:0:0:40:
192,192,41548,1,0,0:0:0:40:
64,192,41711,1,0,0:0:0:40:
320,192,41711,1,0,0:0:0:40:
192,192,41874,1,0,0:0:0:40:
320,192,41955,1,0,0:0:0:40:
448,192,42037,1,0,0:0:0:40:
192,192,42037,1,2,0:0:0:70:C7W_s.wav
320,192,42200,1,0,0:0:0:40:
320,192,42363,1,4,0:0:0:40:
192,192,42363,1,2,0:0:0:70:D7W_ss.wav
64,192,42363,1,4,0:0:0:40:
448,192,42363,1,0,0:0:0:40:
320,192,42689,1,4,0:0:0:40:
192,192,42689,1,2,0:0:0:70:D7W_ss.wav
64,192,42689,1,4,0:0:0:40:
448,192,42689,1,0,0:0:0:40:
64,192,43015,1,2,0:0:0:70:C7W_ss.wav
192,192,43178,1,2,0:0:0:70:D7W_ss.wav
256,192,43341,1,2,0:0:0:70:E7W_s.wav
448,192,43341,1,4,0:0:0:40:
64,192,43341,128,0,43667:0:0:0:40:C6W_s.wav
320,192,43667,1,0,0:0:0:40:
192,192,43667,1,0,0:0:0:40:E6W_ss.wav
448,192,43830,1,0,0:0:0:40:
64,192,43993,1,2,0:0:0:70:C7W_s.wav
320,192,43993,1,0,0:0:0:40:
192,192,43993,1,0,0:0:0:40:E6W_ss.wav
448,192,44156,1,0,0:0:0:40:
192,192,44319,1,2,0:0:0:70:D7W_s.wav
64,192,44319,1,0,0:0:0:40:
320,192,44319,128,0,44645:0:0:0:40:G5W_s.wav
448,192,44482,1,0,0:0:0:40:
64,192,44645,1,2,0:0:0:70:C7W_s.wav
192,192,44645,1,0,0:0:0:40:
448,192,44645,1,0,0:0:0:40:D6W_ss.wav
320,192,44808,1,0,0:0:0:40:
448,192,44971,1,2,0:0:0:70:G7W_s.wav
64,192,44971,1,0,0:0:0:40:
192,192,44971,1,0,0:0:0:40:D6W_ss.wav
320,192,45134,1,0,0:0:0:40:
192,192,45298,1,2,0:0:0:70:D7W_s.wav
448,192,45298,1,4,0:0:0:40:
64,192,45298,128,0,45624:0:0:0:40:A5W_s.wav
192,192,45624,1,0,0:0:0:40:
448,192,45624,1,0,0:0:0:40:E6W_ss.wav
320,192,45787,1,0,0:0:0:40:
192,192,45950,1,2,0:0:0:70:E7W_s.wav
64,192,45950,1,0,0:0:0:40:
448,192,45950,1,0,0:0:0:40:E6W_ss.wav
320,192,46113,1,0,0:0:0:40:
64,192,46276,1,2,0:0:0:70:C7W_s.wav
448,192,46276,1,0,0:0:0:40:
192,192,46276,128,0,46602:0:0:0:40:A5W_s.wav
320,192,46439,1,0,0:0:0:40:
320,192,46602,1,0,0:0:0:40:
448,192,46602,1,0,0:0:0:40:E6W_ss.wav
64,192,46602,1,0,0:0:0:40:
192,192,46765,1,0,0:0:0:40:
320,192,46928,1,2,0:0:0:70:C7W_ss.wav
64,192,46928,1,0,0:0:0:40:
448,192,46928,1,0,0:0:0:40:E6W_ss.wav
192,192,47091,1,0,0:0:0:40:
320,192,47254,1,2,0:0:0:70:C7W_ss.wav
448,192,47254,1,4,0:0:0:40:
64,192,47254,128,0,47580:0:0:0:40:A#5W_s.wav
192,192,47308,1,0,0:0:0:70:D7W_ss.wav
320,192,47363,1,2,0:0:0:70:C7W_s.wav
192,192,47580,1,0,0:0:0:40:
448,192,47580,1,0,0:0:0:40:F6W_ss.wav
320,192,47743,1,0,0:0:0:40:
192,192,47906,1,2,0:0:0:70:A#6W_ss.wav
64,192,47906,1,0,0:0:0:40:
448,192,47906,1,0,0:0:0:40:F6W_ss.wav
320,192,48069,1,0,0:0:0:40:
192,192,48232,1,2,0:0:0:70:A#6W_s.wav
448,192,48232,1,0,0:0:0:40:
64,192,48232,128,0,48558:0:0:0:40:G5W_s.wav
320,192,48395,1,0,0:0:0:40:
320,192,48558,1,2,0:0:0:70:G6W_s.wav
448,192,48558,1,0,0:0:0:40:
192,192,48558,1,0,0:0:0:40:D6W_ss.wav
64,192,48721,1,0,0:0:0:40:
448,192,48884,1,2,0:0:0:70:D7W_s.wav
64,192,48884,1,0,0:0:0:40:
192,192,48884,1,0,0:0:0:40:D6W_ss.wav
320,192,49048,1,0,0:0:0:40:
192,192,49211,1,2,0:0:0:70:C7W_s.wav
448,192,49211,1,4,0:0:0:40:
64,192,49211,128,0,49537:0:0:0:40:C6W_s.wav
320,192,49537,1,0,0:0:0:40:
448,192,49537,1,0,0:0:0:40:G6W_ss.wav
64,192,49700,1,0,0:0:0:40:
192,192,49863,1,0,0:0:0:40:
448,192,49863,1,0,0:0:0:40:G6W_ss.wav
320,192,50026,1,0,0:0:0:40:
64,192,50189,128,2,50515:0:0:0:40:B6W_s.wav
192,192,50189,1,2,0:0:0:40:B6W_s.wav
448,192,50189,1,4,0:0:0:50:
320,192,50352,1,0,0:0:0:40:
192,192,50515,128,2,50841:0:0:0:40:C7W_s.wav
320,192,50515,1,2,0:0:0:40:C7W_s.wav
448,192,50515,1,4,0:0:0:60:
448,192,50841,1,2,0:0:0:40:D7W_s.wav
320,192,50841,128,2,51167:0:0:0:40:D7W_s.wav
64,192,50841,1,4,0:0:0:70:
448,192,51167,128,2,51656:0:0:0:40:E7W_s.wav
64,192,51167,1,6,0:0:0:40:E7W_s.wav
192,192,51167,1,4,0:0:0:80:
192,192,51493,1,2,0:0:0:40:
64,192,51493,1,0,0:0:0:40:
320,192,51656,1,0,0:0:0:40:
192,192,51819,1,2,0:0:0:40:
320,192,51819,1,0,0:0:0:40:
64,192,51819,128,2,52145:0:0:0:85:C7W_s.wav
192,192,51982,1,0,0:0:0:40:
448,192,52145,1,4,0:0:0:40:
320,192,52145,1,0,0:0:0:40:
192,192,52145,128,2,52471:0:0:0:85:D7W_s.wav
448,192,52308,1,0,0:0:0:40:
448,192,52471,1,2,0:0:0:40:
320,192,52471,1,0,0:0:0:40:
64,192,52471,128,2,52798:0:0:0:85:C7W_s.wav
320,192,52634,1,0,0:0:0:40:
192,192,52716,1,0,0:0:0:40:
448,192,52798,1,2,0:0:0:40:
320,192,52798,128,2,53124:0:0:0:85:G7W_s.wav
64,192,52961,1,0,0:0:0:40:
64,192,53124,1,4,0:0:0:40:
192,192,53124,1,0,0:0:0:40:
448,192,53124,128,2,53776:0:0:0:85:A7W_s.wav
64,192,53450,1,2,0:0:0:40:
320,192,53450,1,0,0:0:0:40:
192,192,53613,1,0,0:0:0:40:
64,192,53776,1,2,0:0:0:40:
192,192,53776,1,0,0:0:0:40:
320,192,53776,128,2,53939:0:0:0:85:E7W_ss.wav
64,192,53939,1,0,0:0:0:40:
448,192,54102,1,4,0:0:0:40:
192,192,54102,1,0,0:0:0:40:
320,192,54102,128,2,54591:0:0:0:85:E7W_s.wav
64,192,54265,1,0,0:0:0:40:
192,192,54346,1,0,0:0:0:40:
448,192,54428,1,2,0:0:0:40:
64,192,54428,1,0,0:0:0:40:
192,192,54591,1,0,0:0:0:40:
448,192,54754,1,2,0:0:0:40:
64,192,54754,1,0,0:0:0:40:
192,192,54754,128,2,54917:0:0:0:85:C7W_ss.wav
320,192,54917,1,0,0:0:0:40:
64,192,55080,1,4,0:0:0:40:
448,192,55080,1,0,0:0:0:40:
192,192,55080,1,2,0:0:0:85:C7W_ss.wav
320,192,55134,1,0,0:0:0:85:D7W_ss.wav
192,192,55189,128,2,55732:0:0:0:85:C7W_s.wav
448,192,55406,1,2,0:0:0:40:
64,192,55406,1,0,0:0:0:40:
320,192,55569,1,0,0:0:0:40:
320,192,55732,1,2,0:0:0:40:
448,192,55732,1,0,0:0:0:40:
64,192,55732,128,2,55895:0:0:0:85:A#6W_ss.wav
192,192,55895,1,0,0:0:0:40:
448,192,56058,1,4,0:0:0:40:
320,192,56058,1,0,0:0:0:40:
64,192,56058,128,2,56384:0:0:0:85:A#6W_s.wav
192,192,56221,1,0,0:0:0:40:
320,192,56384,1,2,0:0:0:40:
448,192,56384,1,0,0:0:0:40:
182,192,56384,128,2,56711:0:0:0:85:D7W_s.wav
448,192,56548,1,0,0:0:0:40:
320,192,56629,1,0,0:0:0:40:
64,192,56711,1,2,0:0:0:40:
448,192,56711,128,2,57037:0:0:0:85:A7W_s.wav
192,192,56874,1,0,0:0:0:40:
320,192,57037,128,2,58015:0:0:0:85:F7W_s.wav
64,192,57037,1,4,0:0:0:40:
192,192,57037,1,0,0:0:0:40:
192,192,57363,1,2,0:0:0:40:
448,192,57363,1,0,0:0:0:40:
64,192,57526,1,0,0:0:0:40:
192,192,57689,1,2,0:0:0:40:
448,192,57689,1,0,0:0:0:40:
64,192,57852,1,0,0:0:0:40:
448,192,58015,128,2,58993:0:0:0:85:G7W_s.wav
192,192,58015,1,4,0:0:0:40:
64,192,58015,1,0,0:0:0:40:
320,192,58178,1,2,0:0:0:40:
64,192,58259,1,0,0:0:0:40:
192,192,58341,1,2,0:0:0:40:
64,192,58504,1,2,0:0:0:40:
320,192,58586,1,0,0:0:0:40:
192,192,58667,1,2,0:0:0:40:
320,192,58993,1,4,0:0:0:40:
64,192,58993,128,0,59482:0:0:0:70:F6W_s.wav
192,192,59156,1,2,0:0:0:40:
320,192,59238,1,2,0:0:0:40:
448,192,59319,1,2,0:0:0:40:
192,192,59319,1,0,0:0:0:40:
320,192,59482,1,0,0:0:0:40:
448,192,59482,1,0,0:0:0:70:F6W_ss.wav
64,192,59645,1,0,0:0:0:40:
320,192,59808,1,0,0:0:0:40:
64,192,59971,1,0,0:0:0:70:E6W_ss.wav
448,192,59971,1,4,0:0:0:40:
192,192,59971,1,0,0:0:0:40:
320,192,60134,1,2,0:0:0:40:
192,192,60216,1,2,0:0:0:40:
320,192,60298,1,0,0:0:0:40:
64,192,60298,1,2,0:0:0:40:
192,192,60461,1,2,0:0:0:40:
320,192,60542,1,2,0:0:0:40:
192,192,60624,1,0,0:0:0:40:
448,192,60624,1,0,0:0:0:40:
320,192,60787,1,2,0:0:0:40:
64,192,60950,1,4,0:0:0:40:
192,192,60950,1,0,0:0:0:40:
448,192,60950,128,0,61439:0:0:0:70:D6W_s.wav
320,192,61113,1,2,0:0:0:40:
192,192,61194,1,2,0:0:0:40:
64,192,61276,1,2,0:0:0:40:
320,192,61276,1,0,0:0:0:40:
192,192,61439,1,0,0:0:0:70:G6W_ss.wav
64,192,61439,1,0,0:0:0:40:
448,192,61602,1,0,0:0:0:40:
192,192,61765,1,0,0:0:0:40:
448,192,61928,1,0,0:0:0:70:E6W_ss.wav
64,192,61928,1,4,0:0:0:40:
320,192,61928,1,0,0:0:0:40:
192,192,62091,1,2,0:0:0:40:
320,192,62173,1,2,0:0:0:40:
64,192,62254,1,2,0:0:0:40:
192,192,62254,1,0,0:0:0:40:
320,192,62417,1,2,0:0:0:40:
192,192,62499,1,2,0:0:0:40:
448,192,62580,1,0,0:0:0:40:
320,192,62580,1,0,0:0:0:40:
192,192,62743,1,2,0:0:0:40:
64,192,62906,128,0,63395:0:0:0:70:F6W_s.wav
320,192,62906,1,4,0:0:0:40:
448,192,62906,1,0,0:0:0:40:
192,192,63069,1,2,0:0:0:40:
320,192,63151,1,2,0:0:0:40:
192,192,63232,1,0,0:0:0:40:
448,192,63232,1,2,0:0:0:40:
320,192,63395,1,0,0:0:0:40:
448,192,63395,1,0,0:0:0:70:F6W_ss.wav
64,192,63558,1,0,0:0:0:40:
320,192,63721,1,0,0:0:0:40:
448,192,63884,1,4,0:0:0:40:
192,192,63884,1,0,0:0:0:40:
64,192,63884,1,0,0:0:0:70:E6W_ss.wav
320,192,64048,1,2,0:0:0:40:
192,192,64129,1,2,0:0:0:40:
64,192,64211,1,2,0:0:0:40:
320,192,64211,1,0,0:0:0:40:
192,192,64374,1,2,0:0:0:40:
320,192,64455,1,2,0:0:0:40:
192,192,64537,1,0,0:0:0:40:
448,192,64537,1,0,0:0:0:40:
64,192,64700,1,2,0:0:0:40:
192,192,64863,1,4,0:0:0:40:
320,192,64863,1,0,0:0:0:40:
448,192,64863,128,0,65352:0:0:0:70:D6W_s.wav
64,192,65026,1,2,0:0:0:40:
192,192,65107,1,2,0:0:0:40:
320,192,65189,1,2,0:0:0:40:
64,192,65189,1,0,0:0:0:40:
320,192,65352,1,0,0:0:0:40:
192,192,65352,1,0,0:0:0:70:E6W_ss.wav
448,192,65515,1,0,0:0:0:40:
192,192,65678,1,0,0:0:0:40:
448,192,65841,1,4,0:0:0:40:
64,192,65841,1,0,0:0:0:70:E6W_ss.wav
320,192,65841,1,0,0:0:0:40:
448,192,66004,1,0,0:0:0:40:
192,192,66004,1,2,0:0:0:70:SVF_A4sss.wav
320,192,66086,1,0,0:0:0:40:
448,192,66167,1,0,0:0:0:80:
64,192,66167,1,2,0:0:0:70:SVF_B4sss.wav
448,192,66330,1,0,0:0:0:80:
192,192,66330,1,2,0:0:0:70:SVF_C5sss.wav
64,192,66493,1,0,0:0:0:40:
320,192,66493,1,2,0:0:0:70:SVF_E5sss.wav
192,192,66656,1,0,0:0:0:80:
448,192,66656,1,2,0:0:0:70:SVF_G5sss.wav
64,192,66819,1,0,0:0:0:70:F6W_s.wav
192,192,66819,1,4,0:0:0:40:
320,192,66819,1,2,0:0:0:70:SVF_A5s.wav
448,192,66982,1,2,0:0:0:40:
320,192,67064,1,2,0:0:0:40:
192,192,67145,1,2,0:0:0:40:
448,192,67308,1,0,0:0:0:70:F6W_ss.wav
320,192,67308,1,0,0:0:0:40:
192,192,67471,1,0,0:0:0:40:
64,192,67634,1,0,0:0:0:40:
448,192,67798,1,0,0:0:0:70:E6W_ss.wav
320,192,67798,1,4,0:0:0:40:
192,192,67798,1,2,0:0:0:70:SVF_G5s.wav
64,192,67961,1,2,0:0:0:40:
192,192,68042,1,2,0:0:0:40:
320,192,68124,1,2,0:0:0:40:
448,192,68124,1,2,0:0:0:70:SVF_A5ss.wav
64,192,68287,1,2,0:0:0:40:
448,192,68368,1,2,0:0:0:40:
192,192,68450,1,2,0:0:0:70:SVF_G5s.wav
320,192,68450,1,0,0:0:0:40:
448,192,68613,1,2,0:0:0:40:
64,192,68776,1,2,0:0:0:70:SVF_D5s.wav
320,192,68776,1,0,0:0:0:70:D6W_s.wav
192,192,68776,1,4,0:0:0:40:
448,192,68939,1,2,0:0:0:40:
320,192,69020,1,2,0:0:0:40:
192,192,69102,1,2,0:0:0:40:
64,192,69265,1,0,0:0:0:70:G6W_ss.wav
448,192,69265,1,2,0:0:0:70:SVF_G5s.wav
320,192,69265,1,0,0:0:0:40:
192,192,69428,1,0,0:0:0:40:
448,192,69591,1,0,0:0:0:40:
320,192,69754,1,0,0:0:0:70:E6W_ss.wav
64,192,69754,1,2,0:0:0:70:SVF_E5s.wav
192,192,69754,1,4,0:0:0:40:
448,192,69917,1,2,0:0:0:40:
320,192,69999,1,2,0:0:0:40:
64,192,70080,1,2,0:0:0:40:
192,192,70080,1,0,0:0:0:40:
448,192,70243,1,2,0:0:0:40:
64,192,70325,1,2,0:0:0:40:
192,192,70406,1,2,0:0:0:70:SVF_G5ss.wav
320,192,70406,1,0,0:0:0:40:
64,192,70569,1,2,0:0:0:40:
448,192,70732,1,0,0:0:0:70:F6W_s.wav
320,192,70732,1,2,0:0:0:70:SVF_A5s.wav
192,192,70732,1,4,0:0:0:40:
64,192,70895,1,2,0:0:0:40:
192,192,70977,1,2,0:0:0:40:
320,192,71058,1,2,0:0:0:40:
64,192,71221,1,0,0:0:0:40:F6W_ss.wav
192,192,71221,1,0,0:0:0:40:
320,192,71384,1,0,0:0:0:40:
448,192,71548,1,0,0:0:0:40:
64,192,71711,1,0,0:0:0:70:E6W_ss.wav
192,192,71711,1,2,0:0:0:70:SVF_G5s.wav
320,192,71711,1,4,0:0:0:40:
448,192,71874,1,2,0:0:0:40:
320,192,71955,1,2,0:0:0:40:
192,192,72037,1,2,0:0:0:40:
448,192,72037,1,0,0:0:0:40:
64,192,72200,1,2,0:0:0:40:
192,192,72281,1,2,0:0:0:40:
320,192,72363,1,0,0:0:0:40:
64,192,72363,1,0,0:0:0:40:
192,192,72526,1,2,0:0:0:40:
64,192,72689,1,0,0:0:0:70:D6W_s.wav
320,192,72689,1,2,0:0:0:70:SVF_B5ss.wav
448,192,72689,1,4,0:0:0:40:
192,192,72852,1,2,0:0:0:40:
320,192,72933,1,2,0:0:0:40:
192,192,73015,1,2,0:0:0:70:SVF_A5ss.wav
448,192,73015,1,2,0:0:0:40:
320,192,73178,1,0,0:0:0:40:
64,192,73178,1,0,0:0:0:70:E6W_ss.wav
192,192,73341,1,2,0:0:0:70:SVF_B5ss.wav
448,192,73341,1,0,0:0:0:40:
320,192,73504,1,0,0:0:0:40:
64,192,73667,1,0,0:0:0:70:E6W_ss.wav
448,192,73667,1,2,0:0:0:70:SVF_C6ss.wav
192,192,73667,1,4,0:0:0:40:
320,192,73830,1,2,0:0:0:40:
192,192,73912,1,2,0:0:0:40:
64,192,73993,1,2,0:0:0:40:
448,192,73993,1,0,0:0:0:40:
192,192,74156,1,2,0:0:0:40:
448,192,74156,1,0,0:0:0:40:
64,192,74319,1,2,0:0:0:40:
320,192,74319,1,0,0:0:0:40:
448,192,74482,1,2,0:0:0:40:
192,192,74482,1,0,0:0:0:40:
320,192,74645,128,2,75624:0:0:0:70:SVF_A5s.wav
64,192,74645,1,4,0:0:0:40:
448,192,74645,1,0,0:0:0:40:
192,192,74808,1,2,0:0:0:40:
64,192,74890,1,2,0:0:0:40:
448,192,74971,1,2,0:0:0:40:
192,192,75134,1,0,0:0:0:40:
64,192,75134,1,0,0:0:0:40:
448,192,75298,1,0,0:0:0:40:
192,192,75461,1,0,0:0:0:40:
448,192,75624,1,4,0:0:0:40:
192,192,75624,128,2,75950:0:0:0:70:SVF_G5s.wav
64,192,75624,1,0,0:0:0:40:
320,192,75787,1,2,0:0:0:40:
448,192,75868,1,2,0:0:0:40:
320,192,75950,128,2,76276:0:0:0:70:SVF_A5ss.wav
64,192,75950,1,2,0:0:0:40:
192,192,76113,1,2,0:0:0:40:
64,192,76194,1,2,0:0:0:40:
448,192,76276,1,0,0:0:0:40:
192,192,76276,128,2,76602:0:0:0:70:SVF_G5s.wav
320,192,76439,1,2,0:0:0:40:
64,192,76602,128,2,77091:0:0:0:70:SVF_D5s.wav
448,192,76602,1,0,0:0:0:40:
320,192,76602,1,4,0:0:0:40:
192,192,76765,1,2,0:0:0:40:
320,192,76846,1,2,0:0:0:40:
448,192,76928,1,2,0:0:0:40:
448,192,77091,128,2,77580:0:0:0:70:SVF_G5s.wav
320,192,77091,1,0,0:0:0:40:
192,192,77091,1,0,0:0:0:40:
64,192,77254,1,0,0:0:0:40:
192,192,77417,1,0,0:0:0:40:
64,192,77580,128,2,78232:0:0:0:70:SVF_E5s.wav
320,192,77580,1,4,0:0:0:40:
192,192,77580,1,0,0:0:0:40:
448,192,77743,1,2,0:0:0:40:
320,192,77825,1,2,0:0:0:40:
192,192,77906,1,2,0:0:0:40:
192,192,78069,1,2,0:0:0:40:
320,192,78151,1,2,0:0:0:40:
192,192,78232,128,2,78558:0:0:0:70:SVF_G5ss.wav
448,192,78232,1,0,0:0:0:40:
320,192,78395,1,2,0:0:0:40:
320,192,78558,128,2,79537:0:0:0:70:SVF_A5s.wav
448,192,78558,1,0,0:0:0:40:
64,192,78558,1,4,0:0:0:40:
192,192,78721,1,2,0:0:0:40:
64,192,78803,1,2,0:0:0:40:
448,192,78884,1,2,0:0:0:40:
192,192,79048,1,0,0:0:0:40:
64,192,79048,1,0,0:0:0:40:
448,192,79211,1,0,0:0:0:40:
192,192,79374,1,0,0:0:0:40:
192,192,79537,128,2,80515:0:0:0:70:SVF_G5s.wav
448,192,79537,1,4,0:2:0:40:
64,192,79537,1,0,0:0:0:40:
448,192,79700,1,2,0:0:0:40:
320,192,79781,1,2,0:0:0:40:
64,192,79863,1,2,0:0:0:40:
64,192,80026,1,2,0:0:0:40:
320,192,80107,1,2,0:0:0:40:
448,192,80189,1,0,0:0:0:40:
320,192,80352,1,2,0:0:0:40:
448,192,80515,1,0,0:0:0:40:
64,192,80515,1,4,0:0:0:40:
320,192,80515,1,2,0:0:0:70:SVF_B5ss.wav
192,192,80678,1,2,0:0:0:40:
320,192,80759,1,2,0:0:0:40:
448,192,80841,1,2,0:0:0:40:
192,192,80841,1,2,0:0:0:70:SVF_A5ss.wav
64,192,81004,1,4,0:0:0:50:
320,192,81004,1,0,0:0:0:40:
192,192,81167,1,4,0:0:0:60:
448,192,81167,1,0,0:0:0:40:
320,192,81167,1,2,0:0:0:70:SVF_B5ss.wav
64,192,81330,1,4,0:0:0:70:
192,192,81330,1,0,0:0:0:40:
448,192,81493,128,2,82471:0:0:0:70:SVF_C6ss.wav
64,192,81493,1,6,0:0:0:80:
320,192,81493,128,0,82471:0:0:0:0:
