osu file format v14

[General]
AudioFilename: 107 Welcome to the Workshop!.mp3
AudioLeadIn: 2000
PreviewTime: 61475
Countdown: 0
SampleSet: Soft
StackLeniency: 0.7
Mode: 3
LetterboxInBreaks: 0
SpecialStyle: 0
WidescreenStoryboard: 0

[Editor]
Bookmarks: 101063,102263
DistanceSpacing: 0.9
BeatDivisor: 16
GridSize: 8
TimelineZoom: 1

[Metadata]
Title:Welcome to the Workshop!
TitleUnicode:工房にいらっしゃい!
Artist:Ken Nakagawa
ArtistUnicode:中河健
Creator:schwarzvgrune
Version:Normal
Source:イリスのアトリエ~グランファンタズム~
Tags:阿知波大輔 Koubou ni irasshai! Atelier Iris 3: Grand Phantasm Gust NIS Daisuke Achiwa Avishay Nardoxyribonucleic Lazer ikin5050 Lanturn
BeatmapID:634755
BeatmapSetID:177709

[Difficulty]
HPDrainRate:7
CircleSize:4
OverallDifficulty:7
ApproachRate:5
SliderMultiplier:0.989999904632566
SliderTickRate:1

[Events]
//Background and Video events
0,0,"Atelier_Iris_3__Grand_Phantasm_by_Lunatia.jpg",0,0
//Break Periods
//Storyboard Layer 0 (Background)
//Storyboard Layer 1 (Fail)
//Storyboard Layer 2 (Pass)
//Storyboard Layer 3 (Foreground)
//Storyboard Sound Samples

[TimingPoints]
275,600,4,2,1,40,1,0
1475,600,4,2,1,40,1,0
63875,-100,4,2,1,40,0,1
83075,-100,4,2,1,40,0,0

[HitObjects]
192,192,275,5,0,0:0:0:50:SCG_G5.wav
448,192,575,1,0,0:0:0:50:SCG_C6s.wav
320,192,725,1,0,0:0:0:50:SCG_G5s.wav
192,192,875,1,0,0:0:0:50:SCG_E5.wav
64,192,1175,1,0,0:0:0:35:SCG_G4.wav
192,192,1475,128,2,2375:0:0:0:50:SCG_E5.wav
64,192,2375,1,2,0:0:0:44:SCG_D5s.wav
320,192,2525,1,2,0:0:0:44:SCG_E5s.wav
448,192,2675,128,2,3312:0:0:0:44:SCG_F5.wav
192,192,3312,128,2,3912:0:0:0:44:SCG_G5.wav
320,192,3912,128,2,4775:0:0:0:44:SCG_A5.wav
192,192,4775,128,2,5075:0:0:0:44:SCG_A5.wav
64,192,5075,128,2,5675:0:0:0:44:SCG_G5.wav
448,192,5675,128,2,5975:0:0:0:44:SCG_E5s.wav
320,192,5975,128,2,6275:0:0:0:44:SCG_D5s.wav
192,192,6275,128,2,7175:0:0:0:44:SCG_C5.wav
320,192,7175,128,2,7475:0:0:0:44:SCG_C5.wav
64,192,7475,128,2,7925:0:0:0:44:SCG_B4.wav
448,192,7925,128,2,8375:0:0:0:44:SCG_G5.wav
192,192,8375,128,2,8675:0:0:0:44:SCG_E5.wav
320,192,8675,128,2,10475:0:0:0:44:SCG_F5.wav
64,192,10775,1,2,0:0:0:44:SCG_F5s.wav
192,192,10925,1,2,0:0:0:44:SCG_G5s.wav
320,192,11075,128,2,11525:0:0:0:44:SCG_G#5.wav
192,192,11525,128,2,11975:0:0:0:44:SCG_G5.wav
64,192,11975,128,2,13175:0:0:0:44:SCG_F5.wav
192,192,13175,1,2,0:0:0:44:SCG_G5s.wav
320,192,13325,1,2,0:0:0:44:SCG_G#5s.wav
448,192,13475,128,2,14675:0:0:0:44:SCG_A#5.wav
320,192,14675,128,2,15275:0:0:0:44:SCG_G#5.wav
192,192,15275,128,2,15875:0:0:0:44:SCG_G5.wav
448,192,15875,128,0,16325:0:0:0:44:SVS_A5ss.wav
64,192,15875,1,0,0:0:0:44:SCG_F5.wav
320,192,15875,1,4,0:0:0:0:
320,192,16325,128,0,16775:0:0:0:44:SVS_G5ss.wav
64,192,16325,1,4,0:0:0:0:
448,192,16775,128,0,17375:0:0:0:44:SVS_A#5ss.wav
192,192,16775,1,4,0:0:0:0:
64,192,17375,1,0,0:0:0:44:SVS_G5ss.wav
320,192,17375,1,12,0:0:0:0:
192,192,17675,128,0,18275:0:0:0:44:SVS_A5ss.wav
448,192,17675,1,12,0:0:0:0:
320,192,17975,1,0,0:0:0:0:
64,192,18275,128,0,18725:0:0:0:44:SVS_A5ss.wav
448,192,18275,1,4,0:0:0:0:
192,192,18725,128,0,19175:0:0:0:44:SVS_G5ss.wav
320,192,18725,1,4,0:0:0:0:
448,192,19175,1,4,0:0:0:0:
64,192,19175,128,0,19775:0:0:0:44:SVS_A#5ss.wav
448,192,19775,1,0,0:0:0:44:SVS_G5ss.wav
192,192,19775,1,12,0:0:0:0:
320,192,20075,128,0,20675:0:0:0:44:SVS_A5ss.wav
64,192,20075,1,12,0:0:0:0:
192,192,20375,1,0,0:0:0:0:
64,192,20675,1,0,0:0:0:0:
448,192,20675,1,4,0:0:0:0:
192,192,20975,1,4,0:0:0:0:
448,192,20975,1,0,0:0:0:0:
64,192,21275,1,0,0:0:0:0:
192,192,21575,1,4,0:0:0:0:
320,192,21575,1,0,0:0:0:0:
448,192,21875,1,0,0:0:0:0:
320,192,22175,1,4,0:0:0:0:
64,192,22175,1,0,0:0:0:0:
448,192,22475,1,0,0:0:0:0:
192,192,22475,1,0,0:0:0:0:
320,192,22775,1,4,0:0:0:0:
192,192,22775,1,0,0:0:0:0:
64,192,23075,1,0,0:0:0:0:
320,192,23075,1,0,0:0:0:0:
192,192,23375,1,4,0:0:0:0:
448,192,23375,1,0,0:0:0:0:
64,192,23675,1,0,0:0:0:0:
192,192,23975,1,4,0:0:0:0:
320,192,23975,1,0,0:0:0:0:
448,192,24275,1,0,0:0:0:0:
320,192,24575,1,4,0:0:0:0:
64,192,24575,1,0,0:0:0:0:
448,192,24875,1,0,0:0:0:0:
192,192,24875,1,0,0:0:0:0:
320,192,25175,1,4,0:0:0:0:
192,192,25175,1,0,0:0:0:0:
64,192,25475,128,2,26375:0:0:0:50:SCG_E5.wav
448,192,25475,1,4,0:0:0:0:
320,192,25475,1,0,0:0:0:0:
192,192,25775,1,4,0:0:0:0:
320,192,26075,1,0,0:0:0:0:
192,192,26375,1,2,0:0:0:44:SCG_D5s.wav
448,192,26375,1,4,0:0:0:0:
320,192,26525,1,2,0:0:0:44:SCG_E5s.wav
448,192,26675,1,2,0:0:0:44:SCG_F5.wav
64,192,26675,1,0,0:0:0:0:
64,192,26975,1,4,0:0:0:0:
320,192,26975,1,0,0:0:0:0:
192,192,27275,1,2,0:0:0:44:SCG_G5.wav
320,192,27275,1,0,0:0:0:0:
448,192,27575,1,4,0:0:0:0:
192,192,27575,1,0,0:0:0:0:
320,192,27875,128,2,28775:0:0:0:44:SCG_A5.wav
64,192,27875,1,0,0:0:0:0:
192,192,28175,1,4,0:0:0:0:
448,192,28475,1,0,0:0:0:0:
192,192,28775,1,2,0:0:0:44:SCG_A5.wav
64,192,28775,1,4,0:0:0:0:
320,192,29075,1,2,0:0:0:44:SCG_G5.wav
448,192,29075,1,0,0:0:0:0:
320,192,29375,1,4,0:0:0:0:
192,192,29375,1,0,0:0:0:0:
448,192,29675,1,2,0:0:0:44:SCG_E5s.wav
192,192,29675,1,0,0:0:0:0:
320,192,29975,1,2,0:0:0:44:SCG_D5s.wav
64,192,29975,1,4,0:0:0:0:
192,192,30275,128,2,31175:0:0:0:44:SCG_C5.wav
448,192,30275,1,0,0:0:0:0:
320,192,30575,1,4,0:0:0:0:
448,192,30875,1,0,0:0:0:0:
320,192,31175,1,2,0:0:0:44:SCG_C5.wav
64,192,31175,1,4,0:0:0:0:
192,192,31475,1,2,0:0:0:44:SCG_B4.wav
448,192,31475,1,0,0:0:0:0:
320,192,31775,1,4,0:0:0:0:
64,192,31775,1,0,0:0:0:0:
192,192,31925,128,2,32375:0:0:0:44:SCG_G5.wav
64,192,32375,1,2,0:0:0:44:SCG_E5.wav
448,192,32375,1,4,0:0:0:0:
320,192,32675,128,2,34475:0:0:0:44:SCG_F5.wav
192,192,32675,1,0,0:0:0:0:
64,192,32975,1,4,0:0:0:0:
448,192,33275,1,0,0:0:0:0:
64,192,33575,1,4,0:0:0:0:
448,192,33875,1,0,0:0:0:0:
64,192,34175,1,4,0:0:0:0:
192,192,34475,1,0,0:0:0:0:
192,192,34775,1,2,0:0:0:44:SCG_F5s.wav
448,192,34775,1,4,0:0:0:0:
320,192,34925,1,2,0:0:0:44:SCG_G5s.wav
448,192,35075,1,2,0:0:0:44:SCG_G#5.wav
192,192,35075,1,0,0:0:0:0:
64,192,35075,1,4,0:0:0:0:
64,192,35375,1,4,0:0:0:0:
320,192,35375,1,0,0:0:0:0:
192,192,35525,128,2,35975:0:0:0:44:SCG_G5.wav
64,192,35975,128,2,37175:0:0:0:44:SCG_F5.wav
448,192,35975,1,4,0:0:0:0:
320,192,36275,1,0,0:0:0:0:
448,192,36575,1,4,0:0:0:0:
320,192,36875,1,0,0:0:0:0:
192,192,37175,1,0,0:0:0:44:SCG_F5s.wav
448,192,37175,1,4,0:0:0:0:
64,192,37475,1,0,0:0:0:44:SCG_D#5s.wav
320,192,37475,1,0,0:0:0:0:
192,192,37775,1,4,0:0:0:0:
448,192,37775,1,0,0:0:0:0:
320,192,37925,128,0,38375:0:0:0:44:SCG_A#5s.wav
192,192,38375,1,0,0:0:0:44:SCG_G5s.wav
64,192,38375,1,4,0:0:0:0:
448,192,38675,1,0,0:0:0:44:SCG_G#5s.wav
320,192,38675,1,0,0:0:0:0:
192,192,38975,1,4,0:0:0:0:
320,192,38975,1,0,0:0:0:0:
448,192,39275,1,0,0:0:0:0:
192,192,39275,1,0,0:0:0:0:
64,192,39575,1,2,0:0:0:44:SCG_G#5s.wav
320,192,39575,1,4,0:0:0:0:
192,192,39725,1,2,0:0:0:44:SCG_A#5s.wav
320,192,39875,1,2,0:0:0:44:SCG_C6s.wav
448,192,39875,1,0,0:0:0:0:
64,192,40175,1,4,0:0:0:0:
192,192,40175,1,0,0:0:0:0:
320,192,40475,1,0,0:0:0:0:
192,192,40775,1,2,0:0:0:44:SCG_C6s.wav
448,192,40775,1,4,0:0:0:0:
192,192,41075,1,2,0:0:0:44:SCG_C6s.wav
320,192,41075,1,0,0:0:0:0:
448,192,41375,1,4,0:0:0:0:
64,192,41375,1,0,0:0:0:0:
320,192,41525,128,2,41975:0:0:0:44:SCG_A#5s.wav
64,192,41975,1,2,0:0:0:44:SCG_G#5s.wav
448,192,41975,1,4,0:0:0:0:
192,192,42275,1,2,0:0:0:44:SCG_A#5s.wav
320,192,42275,1,0,0:0:0:0:
448,192,42575,1,4,0:0:0:0:
64,192,42575,1,0,0:0:0:0:
192,192,42875,1,0,0:0:0:0:
320,192,43175,1,4,0:0:0:0:
64,192,43175,1,0,0:0:0:0:
192,192,43325,1,0,0:0:0:0:
448,192,43475,1,0,0:0:0:0:
192,192,43775,1,4,0:0:0:0:
320,192,43775,1,0,0:0:0:0:
64,192,44075,1,0,0:0:0:0:
320,192,44225,1,0,0:0:0:0:
192,192,44375,1,4,0:0:0:0:
448,192,44375,1,0,0:0:0:0:
64,192,44675,128,2,45575:0:0:0:50:SCG_E5.wav
320,192,44675,1,0,0:0:0:0:
448,192,44675,1,4,0:0:0:0:
192,192,44975,1,4,0:0:0:0:
320,192,45275,1,0,0:0:0:0:
192,192,45575,1,2,0:0:0:44:SCG_D5s.wav
448,192,45575,1,4,0:0:0:0:
320,192,45725,1,2,0:0:0:44:SCG_E5s.wav
448,192,45875,1,2,0:0:0:44:SCG_F5.wav
64,192,45875,1,0,0:0:0:0:
64,192,46175,1,4,0:0:0:0:
320,192,46175,1,0,0:0:0:0:
192,192,46475,1,2,0:0:0:44:SCG_G5.wav
320,192,46475,1,0,0:0:0:0:
448,192,46775,1,4,0:0:0:0:
192,192,46775,1,0,0:0:0:0:
320,192,47075,128,2,47975:0:0:0:44:SCG_A5.wav
64,192,47075,1,0,0:0:0:0:
192,192,47375,1,4,0:0:0:0:
448,192,47675,1,0,0:0:0:0:
192,192,47975,1,2,0:0:0:44:SCG_A5.wav
64,192,47975,1,4,0:0:0:0:
320,192,48275,1,2,0:0:0:44:SCG_G5.wav
448,192,48275,1,0,0:0:0:0:
192,192,48575,1,4,0:0:0:0:
320,192,48575,1,0,0:0:0:0:
448,192,48875,1,2,0:0:0:44:SCG_E5s.wav
192,192,48875,1,0,0:0:0:0:
320,192,49175,1,2,0:0:0:44:SCG_D5s.wav
64,192,49175,1,4,0:0:0:0:
192,192,49475,128,2,50375:0:0:0:44:SCG_C5.wav
448,192,49475,1,0,0:0:0:0:
320,192,49775,1,4,0:0:0:0:
64,192,50075,1,0,0:0:0:0:
320,192,50375,1,2,0:0:0:44:SCG_C5.wav
448,192,50375,1,4,0:0:0:0:
64,192,50675,1,2,0:0:0:44:SCG_B4.wav
192,192,50675,1,0,0:0:0:0:
448,192,50975,1,4,0:0:0:0:
192,192,50975,1,0,0:0:0:0:
320,192,51125,128,2,51575:0:0:0:44:SCG_G5.wav
64,192,51575,1,2,0:0:0:44:SCG_E5.wav
448,192,51575,1,4,0:0:0:0:
192,192,51875,128,2,53675:0:0:0:44:SCG_F5.wav
320,192,51875,1,0,0:0:0:0:
64,192,52175,1,4,0:0:0:0:
448,192,52475,1,0,0:0:0:0:
64,192,52775,1,4,0:0:0:0:
448,192,53075,1,0,0:0:0:0:
64,192,53375,1,4,0:0:0:0:
320,192,53675,1,0,0:0:0:0:
64,192,53975,1,2,0:0:0:44:SCG_F5s.wav
320,192,53975,1,4,0:0:0:0:
192,192,54125,1,2,0:0:0:44:SCG_G5s.wav
320,192,54275,1,2,0:0:0:44:SCG_G#5.wav
64,192,54275,1,0,0:0:0:0:
448,192,54275,1,4,0:0:0:0:
320,192,54575,1,4,0:0:0:0:
64,192,54575,1,0,0:0:0:0:
192,192,54725,128,2,55175:0:0:0:44:SCG_G5.wav
64,192,55175,128,2,56375:0:0:0:44:SCG_F5.wav
448,192,55175,1,4,0:0:0:0:
320,192,55475,1,0,0:0:0:0:
448,192,55775,1,4,0:0:0:0:
320,192,56075,1,0,0:0:0:0:
192,192,56375,1,0,0:0:0:44:SCG_F5s.wav
448,192,56375,1,4,0:0:0:0:
64,192,56675,1,0,0:0:0:44:SCG_D#5s.wav
320,192,56675,1,0,0:0:0:0:
192,192,56975,1,4,0:0:0:0:
448,192,56975,1,0,0:0:0:0:
320,192,57125,128,0,57575:0:0:0:44:SCG_A#5s.wav
192,192,57575,1,0,0:0:0:44:SCG_G5s.wav
64,192,57575,1,4,0:0:0:0:
320,192,57875,1,0,0:0:0:44:SCG_G#5s.wav
448,192,57875,1,0,0:0:0:0:
448,192,58175,1,4,0:0:0:0:
64,192,58175,1,0,0:0:0:0:
320,192,58475,1,0,0:0:0:44:SCG_G5s.wav
64,192,58475,1,0,0:0:0:0:
448,192,58775,1,4,0:0:0:0:
192,192,58775,1,0,0:0:0:0:
64,192,59075,128,0,61475:0:0:0:44:SCG_F5s.wav
320,192,59075,1,0,0:0:0:0:
448,192,59375,1,4,0:0:0:0:
192,192,59675,1,0,0:0:0:0:
448,192,59975,1,4,0:0:0:0:
192,192,60275,1,0,0:0:0:0:
448,192,60575,1,4,0:0:0:0:
192,192,60875,1,0,0:0:0:0:
448,192,61175,1,4,0:0:0:0:
320,192,61475,1,0,0:0:0:0:
192,192,61475,1,4,0:0:0:0:
448,192,61775,1,4,0:0:0:0:
64,192,61775,1,0,0:0:0:0:
320,192,62075,1,0,0:0:0:0:
64,192,62375,1,4,0:0:0:0:
448,192,62375,1,0,0:0:0:0:
192,192,62675,1,0,0:0:0:0:
64,192,62975,128,2,63275:0:0:0:33:SVF_D#5ss.wav
320,192,62975,1,4,0:0:0:0:
192,192,63275,128,2,63575:0:0:0:33:SVF_G#5ss.wav
448,192,63275,1,4,0:0:0:45:
320,192,63575,128,2,63875:0:0:0:33:SVF_A#5ss.wav
64,192,63575,1,4,0:0:0:50:
448,192,63875,128,2,64775:0:0:0:33:SVF_C6s.wav
192,192,63875,1,4,0:0:0:60:
64,192,64175,1,4,0:0:0:0:
192,192,64475,1,0,0:0:0:0:
320,192,64775,128,2,65075:0:0:0:33:SVF_A#5ss.wav
64,192,64775,1,4,0:0:0:0:
192,192,65075,1,2,0:0:0:33:SVF_G#5ss.wav
448,192,65075,1,0,0:0:0:0:
320,192,65375,1,4,0:0:0:0:
448,192,65675,128,2,65975:0:0:0:33:SVF_C6ss.wav
192,192,65675,1,0,0:0:0:0:
320,192,65975,1,2,0:0:0:33:SVF_D#6ss.wav
64,192,65975,1,4,0:0:0:0:
320,192,66275,128,2,67475:0:0:0:33:SVF_D#6s.wav
192,192,66275,1,0,0:0:0:0:
64,192,66575,1,4,0:0:0:0:
192,192,66875,1,0,0:0:0:0:
64,192,67175,1,4,0:0:0:0:
192,192,67475,1,0,0:0:0:33:SVF_A#5ss.wav
448,192,67475,1,0,0:0:0:0:
64,192,67775,1,4,0:0:0:0:
448,192,68075,128,2,68375:0:0:0:33:SVF_F6ss.wav
192,192,68075,1,0,0:0:0:0:
320,192,68375,128,2,68675:0:0:0:33:SVF_D#6ss.wav
64,192,68375,1,4,0:0:0:0:
192,192,68675,128,2,69275:0:0:0:33:SVF_G#5ss.wav
448,192,68675,1,0,0:0:0:0:
320,192,68975,1,4,0:0:0:0:
448,192,69275,1,0,0:0:0:0:
192,192,69575,128,2,69875:0:0:0:33:SVF_G#5ss.wav
320,192,69575,1,4,0:0:0:0:
64,192,69875,1,0,0:0:0:0:
448,192,69875,128,2,70325:0:0:0:33:SVF_F6ss.wav
192,192,70175,1,4,0:0:0:0:
320,192,70325,128,2,70775:0:0:0:33:SVF_D#6ss.wav
192,192,70775,128,2,71075:0:0:0:33:SVF_C#6ss.wav
448,192,70775,1,0,0:0:0:0:
64,192,71075,128,2,71975:0:0:0:33:SVF_C6s.wav
320,192,71075,1,0,0:0:0:0:
448,192,71375,1,4,0:0:0:0:
320,192,71675,1,0,0:0:0:0:
448,192,71975,1,4,0:0:0:0:
192,192,72275,128,2,72875:0:0:0:33:SVF_A#5ss.wav
64,192,72275,1,0,0:0:0:0:
320,192,72575,1,4,0:0:0:0:
448,192,72875,128,2,73475:0:0:0:33:SVF_D#6ss.wav
64,192,72875,1,0,0:0:0:0:
320,192,73175,1,4,0:0:0:0:
320,192,73475,128,2,74675:0:0:0:33:SVF_G#5ss.wav
64,192,73475,1,4,0:0:0:0:
192,192,73475,1,0,0:0:0:0:
192,192,73775,1,4,0:0:0:0:
64,192,74075,1,0,0:0:0:0:
192,192,74375,1,4,0:0:0:0:
64,192,74675,1,0,0:0:0:0:
192,192,74975,1,2,0:0:0:22:SVF_E5ss.wav
320,192,74975,1,4,0:0:0:0:
192,192,75275,128,2,75575:0:0:0:22:SVF_E5ss.wav
448,192,75275,1,0,0:0:0:0:
320,192,75575,128,2,75875:0:0:0:33:SVF_G5ss.wav
64,192,75575,1,4,0:0:0:0:
448,192,75875,128,2,77075:0:0:0:33:SVF_G#5ss.wav
192,192,75875,1,0,0:0:0:0:
64,192,76175,1,4,0:0:0:0:
192,192,76475,1,0,0:0:0:0:
64,192,76775,1,4,0:0:0:0:
192,192,77075,1,0,0:0:0:0:
64,192,77375,128,2,77675:0:0:0:33:SVF_G#5ss.wav
320,192,77375,1,4,0:0:0:0:
192,192,77675,128,2,77975:0:0:0:33:SVF_C6ss.wav
448,192,77675,1,0,0:0:0:0:
320,192,77975,128,2,78275:0:0:0:33:SVF_D#6ss.wav
64,192,77975,1,4,0:0:0:0:
448,192,78275,128,2,78875:0:0:0:33:SVF_F6ss.wav
192,192,78275,1,4,0:0:0:0:
64,192,78275,1,0,0:0:0:0:
320,192,78575,1,4,0:0:0:0:
192,192,78875,1,0,0:0:0:0:
64,192,79175,128,2,79475:0:0:0:33:SVF_F6ss.wav
320,192,79175,1,4,0:0:0:0:
192,192,79475,128,2,80075:0:0:0:33:SVF_G6ss.wav
448,192,79475,1,0,0:0:0:0:
320,192,79775,1,4,0:0:0:0:
448,192,80075,128,2,80675:0:0:0:33:SVF_G#6ss.wav
64,192,80075,1,0,0:0:0:0:
192,192,80375,1,4,0:0:0:0:
320,192,80675,128,2,82775:0:0:0:33:SVF_D#6s.wav
64,192,80675,1,0,0:0:0:0:
448,192,80975,1,4,0:0:0:0:
64,192,81275,1,0,0:0:0:0:
192,192,81575,1,4,0:0:0:0:
64,192,81875,1,0,0:0:0:0:
448,192,82175,1,4,0:0:0:0:
64,192,82475,1,0,0:0:0:0:
192,192,82775,1,4,0:0:0:0:
64,192,83075,128,2,83975:0:0:0:50:SCG_E5.wav
448,192,83075,1,0,0:0:0:0:
192,192,83975,1,2,0:0:0:44:SCG_D5s.wav
320,192,84125,1,2,0:0:0:44:SCG_E5s.wav
448,192,84275,128,2,84875:0:0:0:44:SCG_F5.wav
64,192,84875,128,2,85475:0:0:0:44:SCG_G5.wav
192,192,85475,128,2,86375:0:0:0:44:SCG_A5.wav
320,192,86375,128,2,86675:0:0:0:44:SCG_A5.wav
64,192,86675,128,2,87275:0:0:0:44:SCG_G5.wav
448,192,87275,128,2,87575:0:0:0:44:SCG_E5s.wav
320,192,87575,128,2,87875:0:0:0:44:SCG_D5s.wav
192,192,87875,128,2,88775:0:0:0:44:SCG_C5.wav
320,192,88775,128,2,89075:0:0:0:44:SCG_C5.wav
64,192,89075,128,2,89525:0:0:0:44:SCG_B4.wav
448,192,89525,128,2,89975:0:0:0:44:SCG_G5.wav
192,192,89975,128,2,90275:0:0:0:44:SCG_E5.wav
320,192,90275,128,2,92075:0:0:0:44:SCG_F5.wav
64,192,90275,1,0,0:0:0:0:
448,192,90275,1,4,0:0:0:0:
192,192,90575,1,4,0:0:0:0:
64,192,90875,1,0,0:0:0:0:
192,192,91175,1,4,0:0:0:0:
64,192,91475,1,0,0:0:0:0:
192,192,91775,1,4,0:0:0:0:
64,192,92075,1,0,0:0:0:0:
192,192,92375,1,2,0:0:0:44:SCG_F5s.wav
448,192,92375,1,4,0:0:0:0:
320,192,92525,1,2,0:0:0:44:SCG_G5s.wav
448,192,92675,1,2,0:0:0:44:SCG_G#5.wav
192,192,92675,1,0,0:0:0:0:
64,192,92675,1,4,0:0:0:0:
64,192,92975,1,4,0:0:0:0:
320,192,92975,1,0,0:0:0:0:
192,192,93125,128,2,93575:0:0:0:44:SCG_G5.wav
64,192,93575,128,2,94775:0:0:0:44:SCG_F5.wav
448,192,93575,1,4,0:0:0:0:
320,192,93875,1,0,0:0:0:0:
448,192,94175,1,4,0:0:0:0:
320,192,94475,1,0,0:0:0:0:
192,192,94775,1,0,0:0:0:44:SCG_F5s.wav
448,192,94775,1,4,0:0:0:0:
64,192,95075,1,0,0:0:0:44:SCG_D#5s.wav
320,192,95075,1,0,0:0:0:0:
192,192,95375,1,4,0:0:0:0:
448,192,95375,1,0,0:0:0:0:
320,192,95525,128,0,95975:0:0:0:44:SCG_A#5s.wav
192,192,95975,1,0,0:0:0:44:SCG_G5s.wav
64,192,95975,1,4,0:0:0:0:
448,192,96275,1,0,0:0:0:44:SCG_G#5s.wav
320,192,96275,1,0,0:0:0:0:
64,192,96575,1,4,0:0:0:0:
320,192,96575,1,0,0:0:0:0:
448,192,96875,1,0,0:0:0:0:
192,192,96875,1,0,0:0:0:0:
64,192,97175,1,2,0:0:0:44:SCG_G#5s.wav
320,192,97175,1,4,0:0:0:0:
192,192,97325,1,2,0:0:0:44:SCG_A#5s.wav
320,192,97475,1,2,0:0:0:44:SCG_C6s.wav
448,192,97475,1,0,0:0:0:0:
192,192,97775,1,0,0:0:0:0:
64,192,97775,1,4,0:0:0:0:
320,192,98075,1,0,0:0:0:0:
64,192,98375,1,2,0:0:0:44:SCG_C6s.wav
448,192,98375,1,4,0:0:0:0:
64,192,98675,1,2,0:0:0:44:SCG_C6s.wav
320,192,98675,1,0,0:0:0:0:
192,192,98975,1,4,0:0:0:0:
448,192,98975,1,0,0:0:0:0:
320,192,99125,128,2,99575:0:0:0:44:SCG_A#5s.wav
64,192,99575,1,2,0:0:0:44:SCG_G#5s.wav
448,192,99575,1,4,0:0:0:0:
192,192,99875,1,2,0:0:0:44:SCG_A#5s.wav
320,192,99875,1,0,0:0:0:0:
448,192,100175,1,4,0:0:0:0:
64,192,100175,1,0,0:0:0:0:
320,192,100475,1,0,0:0:0:0:
64,192,100775,1,4,0:0:0:0:
448,192,100775,1,0,0:0:0:0:
320,192,101075,1,0,0:0:0:44:SCG_G#5s.wav
192,192,101075,1,0,0:0:0:0:
320,192,101375,1,4,0:0:0:0:
64,192,101375,1,0,0:0:0:0:
192,192,101675,1,0,0:0:0:44:SCG_G5s.wav
448,192,101675,1,0,0:0:0:0:
192,192,101975,1,4,0:0:0:0:
320,192,101975,1,0,0:0:0:0:
64,192,102275,1,0,0:0:0:44:SCG_F5.wav
320,192,102275,1,4,0:0:0:0:
448,192,102275,128,0,102725:0:0:0:44:SVS_A5ss.wav
64,192,102725,1,4,0:0:0:0:
320,192,102725,128,0,103175:0:0:0:44:SVS_G5ss.wav
448,192,103175,128,0,103775:0:0:0:44:SVS_A#5ss.wav
192,192,103175,1,4,0:0:0:0:
320,192,103775,1,4,0:0:0:0:
64,192,103775,1,0,0:0:0:44:SVS_G5ss.wav
448,192,104075,1,12,0:0:0:0:
192,192,104075,128,0,104675:0:0:0:44:SVS_A5ss.wav
320,192,104375,1,0,0:0:0:0:
64,192,104675,128,0,105125:0:0:0:44:SVS_A5ss.wav
320,192,104675,1,4,0:0:0:0:
448,192,104675,1,0,0:0:0:0:
192,192,105125,128,0,105575:0:0:0:44:SVS_G5ss.wav
448,192,105125,1,4,0:0:0:0:
320,192,105575,1,4,0:0:0:0:
64,192,105575,128,0,106175:0:0:0:44:SVS_A#5ss.wav
448,192,106175,1,0,0:0:0:44:SVS_G5ss.wav
192,192,106175,1,12,0:0:0:0:
320,192,106475,128,0,107075:0:0:0:44:SVS_A5ss.wav
64,192,106475,1,12,0:0:0:0:
192,192,106775,1,0,0:0:0:0:
448,192,107075,128,0,107525:0:0:0:44:SVS_A5ss.wav
192,192,107075,1,4,0:0:0:0:
64,192,107075,1,0,0:0:0:0:
64,192,107525,1,4,0:0:0:0:
320,192,107525,128,0,107975:0:0:0:44:SVS_G5ss.wav
192,192,107975,1,4,0:0:0:0:
448,192,107975,128,0,108575:0:0:0:44:SVS_A#5ss.wav
320,192,108575,1,4,0:0:0:0:
64,192,108575,1,0,0:0:0:44:SVS_G5ss.wav
448,192,108875,1,12,0:0:0:0:
192,192,108875,128,0,109475:0:0:0:44:SVS_A5ss.wav
320,192,109175,1,0,0:0:0:0:
320,192,109475,128,2,109925:0:0:0:55:SVF_F5ss.wav
64,192,109475,128,0,109925:0:0:0:33:SVF_A4ss.wav
448,192,109925,128,2,110375:0:0:0:55:SVF_G5ss.wav
192,192,109925,128,0,110375:0:0:0:33:SVF_A#4ss.wav
320,192,110375,128,0,111575:0:0:0:55:SVF_F5ss.wav
64,192,110375,128,0,111575:0:0:0:33:SVF_A4ss.wav
192,192,111575,1,2,0:0:0:0:
64,192,111875,1,2,0:0:0:0:
320,192,111875,1,4,0:0:0:0:
448,192,111875,1,0,0:0:0:0:
