osu file format v9

[General]
AudioFilename: tsuioku.mp3
AudioLeadIn: 0
PreviewTime: 29541
Countdown: 0
SampleSet: Soft
StackLeniency: 0.4
Mode: 0
LetterboxInBreaks: 0

[Editor]
Bookmarks: 89585,94385
DistanceSpacing: 1
BeatDivisor: 4
GridSize: 8

[Metadata]
Title:Tsuioku no Michishirube ~ Sono Ni
Artist:Ken Nakagawa
Creator:Dusty
Version:Normal
Source:Ar tonelico III
Tags:katakiri rekka qoga knell of ar ciel saki cosmosphere gust signpost of memories the second Fiya

[Difficulty]
HPDrainRate:5
CircleSize:3
OverallDifficulty:5
ApproachRate:6
SliderMultiplier:2
SliderTickRate:2

[Events]
//Background and Video events
0,0,"at3_saki_1024x768.jpg"
//Break Periods
2,68185,76535
//Storyboard Layer 0 (Background)
//Storyboard Layer 1 (Fail)
//Storyboard Layer 2 (Pass)
//Storyboard Layer 3 (Foreground)
//Storyboard Sound Samples
//Background Colour Transformations
3,100,0,0,0

[TimingPoints]
785,600,4,2,1,50,1,0
28985,-100,4,2,1,40,0,0
29435,-100,4,2,1,50,0,0
29585,-100,4,2,0,50,0,0
48785,-100,4,2,2,55,0,1
63935,-100,4,2,2,30,0,1
67985,-100,4,2,0,15,0,0
77585,-100,4,2,2,50,0,0
87185,-100,4,2,2,30,0,0
96785,-100,4,2,2,38,0,0
106385,-100,4,2,0,46,0,0
125585,-100,4,2,0,5,0,0
125885,-100,4,2,0,35,0,0
126335,-100,4,2,0,20,0,0
132185,-100,4,2,0,5,0,0

[Colours]
Combo1 : 200,185,145
Combo2 : 160,124,205
Combo3 : 211,169,169
Combo4 : 177,200,222

[HitObjects]
104,80,10385,2,0,B|24:112|32:200,2,150,2|0|0
136,184,11585,2,0,B|216:192|232:96|312:104,1,200,2|0
408,120,12485,1,0
472,192,12785,2,0,B|479:278|399:310,2,150,2|0|0
376,208,13985,6,0,B|296:200|280:296|200:288,1,200,2|0
136,360,14885,1,0
56,304,15185,2,0,B|8:232|40:144|120:128,1,200,2|0
176,72,16085,1,0
192,168,16385,2,0,B|208:240|296:264|361:209,1,200,2|0
256,40,17585,5,2
152,208,18185,1,2
360,208,18785,1,2
408,144,19985,6,0,B|488:176|480:264,2,150,2|0|0
376,248,21185,2,0,B|296:256|280:160|200:168,1,200,2|0
104,184,22085,1,0
40,256,22385,2,0,B|33:342|113:374,2,150,2|0|0
136,280,23585,2,0,B|288:192,2,150,2|0|0
80,200,24785,6,0,B|52:81|163:40,1,200,2|0
336,152,25985,2,0,B|304:208|256:216|208:208|176:152,1,200,2|0
348,40,27185,2,0,B|459:81|432:200,1,200,2|0
256,120,28385,1,2
256,368,28985,1,6
256,368,29585,6,0,B|136:400|64:288,1,200,4|2
96,96,30785,1,0
63,186,31085,1,0
153,219,31385,1,2
186,128,31685,1,0
256,56,31985,6,0,B|353:91|381:203,1,200,0|2
392,304,32885,1,0
496,368,33185,2,0,B|452:273|512:175,1,200,0|2
472,88,34085,1,0
384,40,34385,6,0,B|352:112|256:128|184:80,1,200,0|2
112,80,35285,1,0
128,176,35585,2,0,B|160:248|256:264|328:216,1,200,0|2
400,216,36485,1,0
440,304,36785,6,0,B|376:368|312:312|240:384,1,200,0|2
160,352,37685,1,0
72,304,37985,1,0
256,240,38585,1,2
256,32,39185,6,0,B|376:0|448:112,1,200,4|2
416,304,40385,1,0
449,214,40685,1,0
359,181,40985,1,2
326,272,41285,1,0
256,328,41585,6,0,B|159:293|131:181,1,200,0|2
120,80,42485,1,0
16,16,42785,2,0,B|60:111|0:209,1,200,0|2
40,296,43685,1,0
128,344,43985,6,0,B|160:272|256:256|328:304,1,200,0|2
400,304,44885,1,0
384,208,45185,2,0,B|352:136|256:120|184:168,1,200,0|2
112,168,46085,1,0
64,80,46385,1,4
256,16,46985,1,6
448,80,47585,1,6
256,376,48185,6,0,B|256:248|256:168,1,200,0|4
80,152,49385,2,0,B|16:208|72:304|152:280,2,200,0|2|8
176,176,50885,1,8
256,120,51185,1,2
432,232,51785,5,8
336,208,52085,1,0
256,264,52385,1,2
80,152,52985,5,8
176,176,53285,1,8
256,120,53585,2,0,B|272:56|368:32|416:96,2,200,2|0|2
416,232,55385,5,0
328,280,55685,1,8
232,304,55985,1,2
96,152,56585,5,8
184,104,56885,1,0
280,72,57185,1,2
176,240,57785,5,8
256,192,58085,1,8
336,136,58385,2,0,B|408:96|496:136|512:240|472:296|392:312,1,300,2|0
388,217,59585,1,2
117,168,60485,5,8
168,248,60785,2,0,B|96:288|8:248|-8:144|32:88|112:72,1,300,2|0
120,168,61985,1,2
256,320,62585,1,8
256,320,62885,1,8
304,232,63185,5,2
208,232,63485,1,0
256,144,63785,1,8
256,192,63935,8,4,67985
256,192,77585,6,0,B|232:80|336:16,1,200,4|2
424,56,78485,1,0
360,128,78785,2,0,B|336:184|376:240,1,100
464,192,79385,2,0,B|488:248|448:304,1,100,2|0
368,336,79985,2,0,B|264:392|208:240|80:304,1,300
40,224,81185,2,0,B|-16:248|-24:320|8:376|56:384,1,200,0|8
256,192,82385,6,0,B|280:80|176:16,1,200,0|2
88,56,83285,1,0
152,128,83585,2,0,B|176:184|136:240,1,100
48,192,84185,2,0,B|24:248|64:304,1,100,2|0
144,336,84785,5,4
368,336,85385,1,4
256,168,85985,1,4
136,32,87185,6,0,B|48:72|-16:192|44:311|136:352,1,400,2|0
216,288,88685,1,0
256,192,88985,1,8
296,96,89285,1,0
376,32,89585,2,0,B|464:72|528:192|468:311|376:352,1,400,2|0
352,248,91085,1,0
256,192,91385,1,8
160,248,91685,1,0
136,352,91985,6,0,B|48:312|-16:192|44:73|136:32,1,400,2|0
160,136,93485,1,0
256,192,93785,1,8
352,248,94085,1,0
376,352,94385,6,0,B|464:312|528:192|468:73|376:32,1,400,2|0
296,96,95885,1,0
256,192,96185,1,8
56,192,96785,6,0,B|168:192|200:72,1,200,2|8
256,160,97685,1,0
313,76,97985,2,0,B|344:192|456:192,1,200,2|8
424,288,98885,1,0
352,352,99185,6,0,B|280:344|256:296|232:344|160:352,1,200,2|8
88,288,100085,1,0
160,224,100385,2,0,B|232:232|256:280|280:232|352:224,1,200,2|8
160,56,101585,6,0,B|232:64|256:112|280:64|352:56,1,200,2|8
424,120,102485,1,0
352,184,102785,2,0,B|280:176|256:128|232:176|160:184,1,200,2|8
64,152,103685,1,0
56,256,103985,6,0,B|168:256|200:376,1,200,2|8
256,288,104885,1,0
314,371,105185,2,0,B|344:256|456:256,1,200,2|8
432,160,106085,1,0
344,120,106385,6,0,B|336:56|288:16,2,100,2|0|8
344,216,107285,1,0
256,176,107585,2,0,B|256:128|232:56|168:40|112:40,1,200,2|8
168,264,108785,6,0,B|176:328|224:368,2,100,2|0|8
168,168,109685,1,0
256,208,109985,2,0,B|256:256|280:328|344:344|400:344,1,200,2|8
416,144,111185,6,0,B|488:144|512:72,2,100,2|0|8
328,96,112085,1,0
240,144,112385,2,0,B|160:144|160:48|64:48,1,200,2|8
96,240,113585,6,0,B|24:240|0:312,2,100,2|0|8
184,288,114485,1,0
272,240,114785,2,0,B|352:240|352:336|448:336,1,200,2|8
496,256,115685,1,0
416,200,115985,6,0,B|432:136|408:104|360:88|336:72|328:32,1,200,2|8
256,104,116885,1,0
184,34,117185,2,0,B|176:72|152:88|104:104|80:136|96:200,1,200,2|8
16,256,118085,1,0
48,344,118385,6,0,B|136:360|184:296|176:232,1,200,2|8
256,296,119285,1,0
336,232,119585,2,0,B|328:296|376:360|464:344,1,200,2|8
432,248,120485,1,0
448,152,120785,6,0,B|456:88|408:24|320:40,1,200,2|8
256,120,121685,1,0
192,40,121985,2,0,B|104:24|56:88|64:152,1,200,2|8
256,192,123185,12,2,124985
331,301,126185,5,6
256,192,126335,8,4,132185
