osu file format v12

[General]
AudioFilename: 223 Try.mp3
AudioLeadIn: 0
PreviewTime: 46731
Countdown: 0
SampleSet: Soft
StackLeniency: 0.8
Mode: 0
LetterboxInBreaks: 1
WidescreenStoryboard: 0

[Editor]
DistanceSpacing: 1.3
BeatDivisor: 4
GridSize: 4
TimelineZoom: 1

[Metadata]
Title:Try
TitleUnicode:Try
Artist:Ken Nakagawa
ArtistUnicode:中河健
Creator:Shulin
Version:Normal
Source:Atelier Totori: The Adventurer of Arland
Tags:kazuki yanagawa alchemist 2 gust plus boss battle theme
BeatmapID:301790
BeatmapSetID:92107

[Difficulty]
HPDrainRate:4
CircleSize:3
OverallDifficulty:4
ApproachRate:5
SliderMultiplier:1.6
SliderTickRate:1

[Events]
//Background and Video events
0,0,"Sea.jpeg",0,0
//Break Periods
//Storyboard Layer 0 (Background)
//Storyboard Layer 1 (Fail)
//Storyboard Layer 2 (Pass)
//Storyboard Layer 3 (Foreground)
//Storyboard Sound Samples
//Background Colour Transformations
3,100,163,162,255

[TimingPoints]
10160,571.428571428571,4,2,0,40,1,0
10588,-100,4,2,1,25,0,0
10874,-100,4,2,0,40,0,0
17445,-100,4,2,1,25,0,0
17731,-100,4,2,0,40,0,0
22017,-100,4,2,1,25,0,0
22302,-100,4,2,0,40,0,0
23159,-100,4,2,1,25,0,0
23445,-100,4,2,0,40,0,0
24302,-100,4,2,1,25,0,0
24588,-100,4,2,0,40,0,0
35731,-100,4,2,1,25,0,0
36017,-100,4,2,0,40,0,0
38017,-100,4,2,1,25,0,0
38302,-100,4,2,0,40,0,0
46731,-100,4,2,0,40,0,1
54017,-100,4,2,1,25,0,1
54302,-100,4,2,0,40,0,1
60874,-100,4,2,1,25,0,1
61159,-100,4,2,0,40,0,1
62017,-100,4,2,1,25,0,1
62302,-100,4,2,0,40,0,1
67731,-100,4,2,1,25,0,1
68017,-100,4,2,0,40,0,1
74159,-100,4,2,0,40,0,0
78302,-100,4,2,0,20,0,0
78588,-100,4,2,0,40,0,0
79017,-100,4,2,0,20,0,0
79874,-100,4,2,0,15,0,0
81017,-100,4,2,0,10,0,0
81588,-100,4,2,0,5,0,0

[Colours]
Combo1 : 18,124,255
Combo2 : 128,255,255

[HitObjects]
41,116,9874,1,0,1:2:0:0:
41,116,10160,2,0,P|121:184|265:132,1,240,4|0,0:0|0:0,0:0:0:0:
268,60,11302,2,0,P|333:104|333:192,1,160,0|0,0:0|1:2,0:0:0:0:
328,276,12160,1,0,0:0:0:0:
328,276,12445,2,0,L|500:276,1,160,0|0,0:0|1:2,0:0:0:0:
344,172,13588,2,0,L|165:172,1,160,0|0,0:0|1:2,0:0:0:0:
88,172,14445,5,0,0:0:0:0:
88,172,14731,2,0,P|45:220|45:316,1,160,0|0,0:0|1:2,0:0:0:0:
141,344,15588,1,0,0:0:0:0:
141,344,15874,2,0,P|184:296|184:200,1,160,0|0,0:0|1:2,0:0:0:0:
165,100,16731,1,0,0:0:0:0:
165,100,17017,2,0,P|245:52|321:224,1,320
313,312,18445,2,0,L|405:312,2,80,0|0|0,0:0|1:2|0:0,0:0:0:0:
208,312,19302,6,0,P|232:252|196:156,1,160,0|0,0:0|1:2,0:0:0:0:
48,16,20445,2,0,P|20:103|44:163,1,160,0|0,0:0|1:2,0:0:0:0:
124,236,21302,1,0,0:0:0:0:
204,164,21588,2,0,P|313:136|393:228,1,240
281,244,22731,2,0,P|172:272|92:180,1,240
204,164,23874,6,0,P|313:136|393:228,1,240
401,324,25017,2,0,L|489:324,2,80,0|0|0,0:0|0:0|1:2,0:0:0:0:
296,324,25874,1,0,0:0:0:0:
296,324,26159,2,0,P|273:252|297:168,1,160,0|0,0:0|1:2,0:0:0:0:
321,72,27017,1,0,0:0:0:0:
321,72,27302,2,0,L|157:96,1,160,0|0,0:0|1:2,0:0:0:0:
37,260,28445,6,0,L|201:236,1,160,4|0,0:0|1:2,0:0:0:0:
296,224,29302,2,0,P|308:272|300:312,2,80
345,132,30159,2,0,P|297:120|257:128,1,80,0|0,1:2|0:0,0:0:0:0:
296,224,30731,2,0,P|380:245|450:231,1,160,4|0,0:0|1:2,0:0:0:0:
385,52,31874,2,0,P|301:31|231:45,1,160,0|0,0:0|1:2,0:0:0:0:
141,80,32731,1,0,0:0:0:0:
141,80,33017,6,0,P|165:152|165:248,1,160,4|0,0:0|1:2,0:0:0:0:
97,300,33874,1,0,0:0:0:0:
97,300,34159,2,0,P|165:332|241:300,1,160,0|0,0:0|1:2,0:0:0:0:
167,236,35017,1,0,0:0:0:0:
167,236,35302,2,0,P|245:200|309:372,1,320,4|0,0:0|0:0,0:0:0:0:
215,369,36731,2,0,L|131:369,2,80,0|0|0,0:0|1:2|0:0,0:0:0:0:
312,368,37588,6,0,P|309:225|167:236,1,320,4|0,0:0|0:0,0:0:0:0:
108,316,39017,1,0,0:0:0:0:
48,240,39302,2,0,P|24:160|56:76,1,160,0|4,1:2|0:0,0:0:0:0:
104,12,40159,1,0,0:0:0:0:
165,85,40445,2,0,P|188:160|164:236,1,160,0|0,1:2|0:0,0:0:0:0:
108,316,41302,2,0,L|0:316,2,80,0|0|0,0:0|1:2|0:0,0:0:0:0:
212,316,42159,5,4,0:0:0:0:
348,180,42731,1,0,1:2:0:0:
164,180,43302,1,0,0:0:0:0:
300,316,43874,1,0,1:2:0:0:
396,152,44445,2,0,P|256:84|116:152,1,320,4|0,0:0|1:2,0:0:0:0:
256,284,46159,1,0,1:2:0:0:
396,152,46731,6,0,L|476:128,2,80,4|0|0,0:0|0:0|1:2,0:0:0:0:
372,60,47588,2,0,L|452:36,2,80,0|0|0,0:0|0:0|0:0,0:0:0:0:
232,192,48731,1,0,0:0:0:0:
232,192,49017,2,0,L|152:216,2,80,4|0|0,0:0|0:0|1:2,0:0:0:0:
256,284,49874,2,0,L|176:308,2,80,0|0|0,0:0|0:0|0:0,0:0:0:0:
348,256,50731,6,0,P|332:172|368:88,2,160,0|4|0,1:2|0:0|1:2,0:0:0:0:
448,272,52159,2,0,P|380:352|256:276,1,240,0|0,0:0|1:0,0:0:0:0:
348,256,53302,1,0,0:0:0:0:
348,256,53588,2,0,P|256:204|172:316,1,240,0|0,0:0|0:0,0:0:0:0:
268,308,54731,2,0,P|280:340|280:388,2,80,0|0|0,1:2|1:2|1:2,0:0:0:0:
220,124,55874,6,0,L|400:124,1,160,4|0,0:0|1:2,0:0:0:0:
216,220,57017,2,0,L|84:220,2,120,4|2|2,0:0|0:0|0:0,0:0:0:0:
312,220,58159,2,0,P|336:296|312:372,1,160,4|0,0:0|1:2,0:0:0:0:
136,296,59302,2,0,P|112:220|136:144,1,160,4|0,0:0|1:2,0:0:0:0:
188,56,60159,1,2,0:0:0:0:
240,148,60445,6,0,P|356:220|436:132,1,240,4|2,0:0|0:0,0:0:0:0:
336,112,61588,2,0,P|220:40|140:128,1,240,4|2,0:0|0:0,0:0:0:0:
240,148,62731,2,0,P|220:204|220:276,2,120,4|2|2,0:0|0:0|0:0,0:0:0:0:
268,56,63874,2,0,L|100:56,1,160,4|0,0:0|1:2,0:0:0:0:
12,56,64731,1,2,0:0:0:0:
60,148,65017,6,0,L|248:148,1,160,4|0,0:0|1:2,0:0:0:0:
412,232,66159,2,0,P|356:260|296:252,2,120,4|2|2,0:0|0:0|0:0,0:0:0:0:
340,156,67302,2,0,P|424:128|516:236,1,240,4|2,0:0|0:0,0:0:0:0:
412,232,68445,1,4,0:0:0:0:
112,152,69302,5,0,0:0:0:0:
196,88,69588,2,0,P|212:160|160:244,1,160,4|0,0:0|1:2,0:0:0:0:
316,80,70731,2,0,P|300:152|352:236,1,160,4|0,0:0|1:2,0:0:0:0:
400,144,71588,1,0,0:0:0:0:
460,60,71874,2,0,P|497:128|482:205,2,160,4|0|8,0:0|1:2|3:0,0:0:0:0:
256,92,73588,1,8,3:0:0:0:
184,288,74159,6,0,P|256:320|328:288,1,160,4|0,0:0|0:0,0:0:0:0:
328,96,75302,2,0,P|256:65|185:97,1,160,0|0,0:0|0:0,0:0:0:0:
184,288,76445,2,0,P|196:332|196:372,2,80
164,184,77302,2,0,P|120:196|80:196,1,80
116,104,77874,2,0,P|180:84|248:224,1,240
256,192,79017,12,4,82159,0:0:0:0:
