osu file format v12

[General]
AudioFilename: 223 Try.mp3
AudioLeadIn: 0
PreviewTime: 46731
Countdown: 0
SampleSet: Soft
StackLeniency: 0.8
Mode: 0
LetterboxInBreaks: 1
WidescreenStoryboard: 0

[Editor]
DistanceSpacing: 1.2
BeatDivisor: 4
GridSize: 4

[Metadata]
Title:Try
TitleUnicode:Try
Artist:Ken Nakagawa
ArtistUnicode:中河健
Creator:Shulin
Version:Hard
Source:Atelier Totori: The Adventurer of Arland
Tags:kazuki yanagawa alchemist 2 gust plus boss battle theme
BeatmapID:249147
BeatmapSetID:92107

[Difficulty]
HPDrainRate:7
CircleSize:4
OverallDifficulty:7
ApproachRate:7
SliderMultiplier:2.1
SliderTickRate:1

[Events]
//Background and Video events
0,0,"Sea.jpeg",0,0
//Break Periods
//Storyboard Layer 0 (Background)
//Storyboard Layer 1 (Fail)
//Storyboard Layer 2 (Pass)
//Storyboard Layer 3 (Foreground)
//Storyboard Sound Samples
//Background Colour Transformations
3,100,163,162,255

[TimingPoints]
10160,571.428571428571,4,2,0,40,1,0
17445,-100,4,2,1,25,0,0
17731,-100,4,2,0,40,0,0
19731,-100,4,2,1,25,0,0
20017,-100,4,2,0,40,0,0
35017,-100,4,2,0,40,0,0
38017,-100,4,2,1,25,0,0
38302,-100,4,2,0,40,0,0
44588,-100,4,2,0,35,0,0
45231,-100,4,2,0,25,0,0
45374,-100,4,2,0,40,0,0
46731,-100,4,2,0,40,0,1
74159,-100,4,2,0,40,0,0
79017,-100,4,2,0,20,0,0
79874,-100,4,2,0,15,0,0

[Colours]
Combo1 : 18,124,255
Combo2 : 128,255,255

[HitObjects]
400,72,9874,1,0,1:2:0:0:
400,72,10017,1,0,1:2:0:0:
400,72,10160,2,0,P|336:152|228:132,1,210,4|0,0:0|1:2,0:0:0:0:
152,72,11017,1,0,0:0:0:0:
152,72,11160,1,0,0:0:0:0:
152,72,11302,2,0,P|232:136|212:244,1,210,0|0,0:0|1:2,0:0:0:0:
116,180,12160,1,0,0:0:0:0:
152,72,12445,5,0,0:0:0:0:
360,312,13017,1,0,1:2:0:0:
152,72,13588,1,0,0:0:0:0:
116,180,13874,1,0,0:0:0:0:
228,160,14160,1,0,1:2:0:0:
192,268,14445,5,0,0:0:0:0:
192,268,14588,1,0,0:0:0:0:
192,268,14731,2,0,P|256:336|376:288,1,210,0|0,0:0|1:0,0:0:0:0:
464,260,15588,1,0,0:0:0:0:
464,260,15731,1,0,0:0:0:0:
464,260,15874,2,0,P|400:192|280:240,1,210,0|0,0:0|1:2,0:0:0:0:
300,221,16731,1,0,0:0:0:0:
300,221,17017,2,0,P|164:296|20:120,1,420,0|0,0:0|0:0,0:0:0:0:
92,16,18445,1,0,0:0:0:0:
212,56,18731,5,0,1:0:0:0:
232,64,18874,1,0,0:0:0:0:
252,72,19017,1,0,0:0:0:0:
272,80,19159,1,0,0:0:0:0:
292,88,19302,2,0,P|392:196|392:356,1,315,0|0,0:0|0:0,0:0:0:0:
364,356,20302,2,0,L|524:356,1,157.5
496,232,21017,1,0,1:0:0:0:
472,108,21302,5,0,0:0:0:0:
472,108,21445,1,0,0:0:0:0:
472,108,21588,2,0,P|384:60|296:108,1,210,0|0,0:0|1:0,0:0:0:0:
380,200,22445,1,0,0:0:0:0:
380,200,22588,1,0,0:0:0:0:
380,200,22731,2,0,P|292:248|204:200,1,210,0|0,0:0|1:0,0:0:0:0:
296,108,23588,5,0,0:0:0:0:
296,108,23731,1,0,0:0:0:0:
296,108,23874,2,0,P|208:60|120:108,1,210,0|0,0:0|1:0,0:0:0:0:
204,200,24731,1,0,0:0:0:0:
204,200,24874,2,0,P|220:260|220:356,1,157.5
112,288,25588,1,0,1:0:0:0:
212,208,25874,5,0,0:0:0:0:
212,208,26017,1,0,0:0:0:0:
212,208,26159,1,0,0:0:0:0:
116,124,26445,1,0,0:0:0:0:
216,44,26731,1,0,1:0:0:0:
116,124,27017,1,0,0:0:0:0:
116,124,27159,1,0,0:0:0:0:
116,124,27302,1,0,0:0:0:0:
212,208,27588,1,0,0:0:0:0:
308,128,27874,1,0,1:0:0:0:
328,260,28159,5,0,1:0:0:0:
328,260,28302,1,0,1:0:0:0:
328,260,28445,2,0,P|376:296|428:296,1,105,4|0,0:0|0:0,0:0:0:0:
366,169,29017,2,0,P|330:217|330:269,1,105,0|0,1:0|0:0,0:0:0:0:
289,351,29588,2,0,P|325:303|325:251,1,105,0|0,0:0|0:0,0:0:0:0:
236,221,30159,2,0,P|284:257|336:257,1,105,0|0,1:0|0:0,0:0:0:0:
284,140,30731,6,0,P|180:152|144:244,1,210,4|0,0:0|1:0,0:0:0:0:
144,352,31588,1,0,0:0:0:0:
44,296,31874,1,0,0:0:0:0:
144,240,32159,1,0,0:0:0:0:
44,180,32445,1,0,1:0:0:0:
144,124,32731,5,0,0:0:0:0:
144,124,32874,1,0,0:0:0:0:
144,124,33017,2,0,L|248:68,1,105,4|0,0:0|0:0,0:0:0:0:
256,176,33588,2,0,P|239:136|236:74,1,105,0|0,1:0|0:0,0:0:0:0:
348,126,34159,2,0,L|256:176,1,105
368,228,34731,2,0,P|351:188|348:126,1,105,0|0,1:0|0:0,0:0:0:0:
464,216,35302,6,0,P|440:304|328:316,1,210,4|0,0:0|1:0,0:0:0:0:
228,272,36159,1,0,0:0:0:0:
144,352,36445,1,0,0:0:0:0:
44,296,36731,1,0,0:0:0:0:
72,184,37017,5,0,1:0:0:0:
80,160,37159,1,0,0:0:0:0:
88,136,37302,1,0,0:0:0:0:
96,112,37445,1,0,0:0:0:0:
104,88,37588,2,0,P|208:48|312:208,1,315,4|0,0:0|0:0,0:0:0:0:
316,216,38588,2,0,P|396:216|456:172,1,157.5
440,40,39302,1,0,1:0:0:0:
464,180,39588,5,0,0:0:0:0:
464,180,39731,1,0,0:0:0:0:
464,181,39874,2,0,P|404:225|272:189,1,210,4|0,0:0|1:0,0:0:0:0:
240,88,40731,1,0,0:0:0:0:
240,88,40874,1,0,0:0:0:0:
240,88,41017,2,0,P|272:168|272:320,1,210,0|0,0:0|1:0,0:0:0:0:
164,312,41874,5,0,0:0:0:0:
164,312,42017,1,0,0:0:0:0:
164,312,42159,2,0,P|158:189|126:109,1,210,4|0,0:0|1:0,0:0:0:0:
20,156,43017,1,0,0:0:0:0:
20,156,43160,2,0,P|48:228|48:348,1,157.5
164,208,43874,1,0,1:0:0:0:
24,160,44160,5,0,0:0:0:0:
24,160,44302,1,0,0:0:0:0:
24,160,44445,1,0,0:0:0:0:
128,52,44731,1,8,2:3:0:0:
164,208,45017,1,8,2:3:0:0:
164,208,45302,1,0,1:0:0:0:
164,208,45445,1,0,1:0:0:0:
164,208,45588,2,0,P|216:268|336:248,1,210,0|0,1:0|1:0,0:0:0:0:
334,249,46731,6,0,L|352:360,1,105,4|0,0:0|0:0,0:0:0:0:
456,264,47302,2,0,L|438:153,1,105,0|0,1:0|0:0,0:0:0:0:
424,24,47874,1,0,0:0:0:0:
312,112,48160,1,0,0:0:0:0:
196,32,48445,1,0,1:0:0:0:
100,132,48731,1,0,0:0:0:0:
100,132,49017,6,0,P|116:192|116:252,1,105,4|0,0:0|0:0,0:0:0:0:
214,134,49588,2,0,P|198:74|198:14,1,105,0|0,1:0|0:0,0:0:0:0:
312,112,50160,2,0,P|328:172|328:232,1,105
324,340,50731,1,0,1:0:0:0:
200,324,51017,1,0,0:0:0:0:
76,308,51302,6,0,P|76:192|4:104,1,210,4|0,0:0|1:0,0:0:0:0:
23,118,52160,2,0,P|75:158|224:158,1,210
344,120,53017,1,0,1:0:0:0:
344,120,53302,1,0,0:0:0:0:
344,120,53445,1,0,0:0:0:0:
344,120,53588,2,0,P|368:188|368:280,2,157.5,0|0|0,0:0|0:0|0:0,0:0:0:0:
256,20,54731,2,0,P|204:36|148:36,1,105,0|0,1:0|1:0,0:0:0:0:
28,32,55302,6,0,L|20:92,3,52.5,0|0|0|0,1:0|1:0|1:0|1:0,0:0:0:0:
20,120,55874,2,0,P|108:216|80:292,1,210,4|0,0:0|1:0,0:0:0:0:
8,336,56731,1,0,0:0:0:0:
8,336,57017,2,0,P|68:380|152:348,2,157.5,4|2|2,0:0|0:0|0:0,0:0:0:0:
89,280,58160,2,0,P|180:256|224:372,1,210,4|0,0:0|1:0,0:0:0:0:
142,358,59017,1,2,0:0:0:0:
142,358,59160,1,2,0:0:0:0:
142,358,59302,2,0,L|374:359,1,210,4|0,0:0|1:0,0:0:0:0:
412,260,60160,5,2,0:0:0:0:
412,260,60302,1,2,0:0:0:0:
412,260,60445,2,0,L|180:260,1,210,4|0,0:0|1:0,0:0:0:0:
86,260,61302,1,2,0:0:0:0:
148,164,61588,2,0,L|384:164,1,210,4|0,0:0|1:0,0:0:0:0:
473,164,62445,1,2,0:0:0:0:
380,92,62731,2,0,P|352:168|392:244,2,157.5,4|2|2,0:0|0:0|0:0,0:0:0:0:
400,68,63731,1,2,0:0:0:0:
420,44,63874,2,0,L|304:44,1,105,0|0,1:0|1:0,0:0:0:0:
155,40,64445,6,0,P|171:76|171:96,3,52.5,0|0|0|0,1:0|0:0|1:0|0:0,0:0:0:0:
168,124,65017,2,0,P|136:188|172:320,1,210,4|0,0:0|1:0,0:0:0:0:
256,216,65874,1,0,0:0:0:0:
256,216,66160,2,0,P|328:240|412:240,2,157.5,4|2|2,0:0|0:0|0:0,0:0:0:0:
168,124,67302,2,0,P|256:76|344:124,1,210,4|0,0:0|1:0,0:0:0:0:
256,216,68160,1,2,0:0:0:0:
256,216,68302,1,2,0:0:0:0:
256,216,68445,2,0,P|168:264|80:216,1,210,4|0,0:0|1:0,0:0:0:0:
168,124,69302,5,2,0:0:0:0:
168,124,69445,1,2,0:0:0:0:
168,124,69588,2,0,P|256:76|344:124,1,210,4|0,0:0|1:0,0:0:0:0:
432,215,70445,1,0,0:0:0:0:
432,215,70731,2,0,P|412:268|412:324,1,105,0|0,1:0|0:0,0:0:0:0:
323,225,71302,2,0,P|343:172|343:116,1,105,0|0,1:0|0:0,0:0:0:0:
228,176,71874,6,0,P|207:228|207:284,1,105,0|0,1:0|1:0,0:0:0:0:
323,225,72445,1,0,1:0:0:0:
252,76,72731,1,0,0:0:0:0:
120,188,73017,1,8,2:3:0:0:
120,188,73160,1,8,2:3:0:0:
252,76,73445,1,8,2:3:0:0:
252,76,73588,1,8,2:3:0:0:
323,225,73874,1,8,2:3:0:0:
444,112,74160,5,4,0:0:0:0:
444,112,74445,2,0,L|452:56,4,52.5,0|0|0|0|0,0:0|0:0|0:0|0:0|0:0,0:0:0:0:
427,224,75302,2,0,L|323:225,1,105
348,340,75874,2,0,L|223:339,1,105
106,339,76445,5,0,0:0:0:0:
106,339,76731,2,0,P|104:304|88:280,1,52.5
84,252,77017,2,0,P|86:217|102:193,1,52.5
112,168,77302,2,0,P|110:133|94:109,1,52.5
84,84,77588,2,0,L|228:84,1,105
336,84,78160,2,0,P|320:136|320:200,2,105,0|0|0,0:0|0:0|0:0,0:0:0:0:
256,192,79017,12,0,81017,0:0:0:0:
152,312,81588,5,0,0:0:0:0:
360,72,82160,1,4,0:0:0:0:
