osu file format v12

[General]
AudioFilename: 223 Try.mp3
AudioLeadIn: 0
PreviewTime: 46731
Countdown: 0
SampleSet: Soft
StackLeniency: 0.8
Mode: 0
LetterboxInBreaks: 1
WidescreenStoryboard: 1

[Editor]
DistanceSpacing: 1
BeatDivisor: 4
GridSize: 4
TimelineZoom: 1

[Metadata]
Title:Try
TitleUnicode:Try
Artist:Ken Nakagawa
ArtistUnicode:中河健
Creator:Shulin
Version:Easy
Source:Atelier Totori: The Adventurer of Arland
Tags:kazuki yanagawa alchemist 2 gust plus boss battle theme
BeatmapID:304900
BeatmapSetID:92107

[Difficulty]
HPDrainRate:3
CircleSize:2
OverallDifficulty:3
ApproachRate:4
SliderMultiplier:1.3
SliderTickRate:1

[Events]
//Background and Video events
0,0,"Sea.jpeg",0,0
//Break Periods
//Storyboard Layer 0 (Background)
//Storyboard Layer 1 (Fail)
//Storyboard Layer 2 (Pass)
//Storyboard Layer 3 (Foreground)
//Storyboard Sound Samples
//Background Colour Transformations
3,100,163,162,255

[TimingPoints]
10160,571.428571428571,4,2,0,40,1,0
10588,-100,4,2,1,25,0,0
10874,-100,4,2,0,40,0,0
15159,-100,4,2,1,25,0,0
15445,-100,4,2,0,40,0,0
19731,-100,4,2,1,25,0,0
20017,-100,4,2,0,40,0,0
22017,-100,4,2,1,25,0,0
22302,-100,4,2,0,40,0,0
23159,-100,4,2,1,25,0,0
23445,-100,4,2,0,40,0,0
26588,-100,4,2,1,25,0,0
26874,-100,4,2,0,40,0,0
35731,-100,4,2,1,25,0,0
36017,-100,4,2,0,40,0,0
40302,-100,4,2,1,25,0,0
40588,-100,4,2,0,40,0,0
43731,-100,4,2,1,25,0,0
44017,-100,4,2,0,40,0,0
44874,-100,4,2,1,25,0,0
45159,-100,4,2,0,40,0,0
46731,-100,4,2,0,40,0,1
54017,-100,4,2,1,25,0,1
54302,-100,4,2,0,40,0,1
58588,-100,4,2,1,25,0,1
58874,-100,4,2,0,40,0,1
66588,-100,4,2,1,25,0,1
66874,-100,4,2,0,40,0,1
67731,-100,4,2,1,25,0,1
68017,-100,4,2,0,40,0,1
74159,-100,4,2,0,40,0,0
79017,-100,4,2,0,20,0,0
79874,-100,4,2,0,15,0,0
81017,-100,4,2,0,10,0,0
81588,-100,4,2,0,5,0,0

[Colours]
Combo1 : 18,124,255
Combo2 : 128,255,255

[HitObjects]
68,224,10160,6,0,B|216:144|296:308|444:212,1,390,4|0,0:0|1:2,0:0:0:0:
364,112,12445,1,0,0:0:0:0:
256,40,13017,1,0,1:2:0:0:
148,112,13588,1,0,0:0:0:0:
212,364,14731,6,0,P|292:320|308:164,1,260
196,228,16445,1,0,1:2:0:0:
68,224,17017,2,0,P|88:152|136:116,1,130,0|0,0:0|1:2,0:0:0:0:
256,76,18159,1,0,0:0:0:0:
412,328,19302,6,0,P|457:211|385:110,1,260
128,110,21588,2,0,P|56:211|101:328,2,260
256,84,24445,6,0,P|252:148|212:208,1,130,0|0,1:2|0:0,0:0:0:0:
436,344,26159,2,0,B|444:272|400:216|400:216|356:160|380:84,1,260
256,148,27874,1,0,1:2:0:0:
136,99,28445,5,4,0:0:0:0:
388,36,29588,2,0,P|452:64|480:132,1,130,0|0,0:0|1:2,0:0:0:0:
446,239,30731,2,0,P|387:215|356:160,1,130,4|0,0:0|1:2,0:0:0:0:
256,76,31874,1,0,0:0:0:0:
156,159,32445,1,0,1:2:0:0:
33,115,33017,6,0,P|64:59|124:36,1,130,4|0,0:0|1:2,0:0:0:0:
156,160,34160,2,0,P|124:215|65:239,1,130,0|0,0:0|1:2,0:0:0:0:
156,332,35302,2,0,P|256:264|364:332,1,260,4|0,0:0|0:0,0:0:0:0:
384,68,37588,6,0,L|256:48,1,130,4|0,0:0|1:2,0:0:0:0:
324,160,38731,2,0,L|196:140,1,130,0|0,0:0|1:2,0:0:0:0:
112,40,39874,2,0,P|64:128|148:256,1,260,4|0,0:0|0:0,0:0:0:0:
388,336,42159,6,0,P|404:276|368:192,1,130,4|0,0:0|1:2,0:0:0:0:
380,84,43302,2,0,B|300:144|216:28|132:100,2,260,0|0|0,0:0|0:0|1:2,0:0:0:0:
448,196,46159,1,0,1:2:0:0:
380,308,46731,6,0,L|240:284,1,130,4|0,0:0|1:2,0:0:0:0:
188,172,47874,2,0,L|328:196,1,130,0|0,0:0|1:2,0:0:0:0:
252,80,49017,2,0,L|112:56,2,130,4|0|0,0:0|1:2|0:0,0:0:0:0:
128,308,51302,6,0,P|148:236|56:144,2,195,4|2|0,0:0|0:0|1:2,0:0:0:0:
256,328,53588,2,0,P|276:232|416:184,1,260,4|0,0:0|1:2,0:0:0:0:
380,308,55302,1,0,1:2:0:0:
496,248,55874,6,0,P|516:200|496:120,1,130,4|0,0:0|1:2,0:0:0:0:
392,56,57017,2,0,L|260:80,1,130,4|0,0:0|1:2,0:0:0:0:
136,100,58159,2,0,P|100:188|192:324,1,260,4|0,0:0|0:0,0:0:0:0:
440,340,60445,6,0,P|416:284|440:216,1,130,4|0,0:0|1:2,0:0:0:0:
452,92,61588,2,0,L|304:76,1,130,4|0,0:0|1:2,0:0:0:0:
192,60,62731,1,4,0:0:0:0:
256,312,63874,1,2,0:0:0:0:
320,60,65017,6,0,P|380:60|436:100,1,130,4|0,0:0|1:2,0:0:0:0:
440,228,66159,2,0,P|348:252|236:132,2,260,4|4|4,0:0|0:0|0:0,0:0:0:0:
204,336,69588,5,4,0:0:0:0:
12,160,70731,1,2,0:0:0:0:
256,68,71874,1,4,0:0:0:0:
500,160,73017,1,2,0:0:0:0:
304,332,74159,6,0,L|156:332,1,130,4|0,0:0|0:0,0:0:0:0:
92,232,75302,2,0,L|240:232,1,130,0|0,0:0|0:0,0:0:0:0:
304,132,76445,2,0,L|156:132,1,130,2|0,0:0|0:0,0:0:0:0:
92,32,77588,2,0,L|240:32,1,130,0|0,0:0|0:0,0:0:0:0:
256,192,78731,12,4,82159,0:0:0:0:
