osu file format v6

[General]
AudioFilename: 135 To the Future of Dreams.mp3
AudioLeadIn: 0
PreviewTime: 7979
Countdown: 0
SampleSet: Soft
StackLeniency: 0.7
Mode: 0
LetterboxInBreaks: 1

[Editor]
Bookmarks: 7898
DistanceSpacing: 0.800000011920929
BeatDivisor: 3
GridSize: 16

[Metadata]
Title:To the Future of Dreams
Artist:Ken Nakagawa
Creator:Starrodkirby86
Version:Easy
Source:Mana Khemia: Alchemists of Al-Revis
Tags:gust atelier iris school

[Difficulty]
HPDrainRate:3
CircleSize:3
OverallDifficulty:3
SliderMultiplier:1.4
SliderTickRate:1

[Events]
//Background and Video events
0,0,"booo school.jpg"
//Break Periods
//Storyboard Layer 0 (Background)
//Storyboard Layer 1 (Fail)
//Storyboard Layer 2 (Pass)
//Storyboard Layer 3 (Foreground)
//Storyboard Sound Samples
//Background Colour Transformations
3,100,163,162,255

[TimingPoints]
360,486.302480142649,4,2,0,80,1,0
69278,-100,4,2,0,50,0,0

[Colours]
Combo1 : 255,221,170
Combo2 : 172,253,172
Combo3 : 172,172,253
Combo4 : 253,172,172

[HitObjects]
416,80,8140,6,0,B|320:80|320:192,1,140,0|8
320,256,9113,2,0,B|416:256|416:144,1,140,0|8
320,160,10086,2,0,B|224:160|224:256,2,140,0|8|2
416,256,12031,6,0,B|416:336|304:336,1,140,0|8
256,256,13003,1,2
256,256,13490,1,8
191,335,13976,2,0,B|96:336|96:256,2,140,2|8|2
96,80,15921,6,0,B|192:80|192:192,1,140,0|8
192,256,16894,2,0,B|96:256|96:144,1,140,0|8
192,160,17866,2,0,B|288:160|288:256,2,140,0|8|2
400,64,19812,5,2
112,64,20784,1,6
256,192,21757,6,8,B|256:336,2,140,8|8|12
416,80,23702,5,2
384,160,24188,1,0
352,240,24675,1,2
96,80,25647,5,2
128,160,26134,1,0
160,240,26620,1,2
256,80,27592,5,2
320,144,28079,1,0
256,208,28565,1,2
192,144,29051,1,0
256,80,29538,5,2
256,80,30024,1,2
256,80,30510,1,6
64,288,31483,5,2
160,240,31969,1,0
256,192,32455,2,0,B|256:288|336:288,1,140,2|4
448,96,33428,5,2
352,144,33914,1,0
256,192,34401,2,0,B|256:96|176:96,1,140,2|4
112,160,35373,5,2
400,160,36346,1,2
304,304,37318,5,2
256,224,37805,1,2
208,304,38291,1,6
256,208,38615,12,2,40236
256,208,40561,12,2,42182
256,208,42506,12,2,44127
376,80,45099,5,8
296,80,45586,1,2
216,80,46072,1,8
136,80,46558,1,2
176,144,47045,6,0,B|176:288,1,140,0|8
256,288,48017,2,0,B|256:144,1,140,0|8
336,144,48990,2,8,B|336:288,2,140
256,64,50449,1,4
208,144,50935,5,0
304,144,51421,1,14
304,240,51908,1,0
208,240,52394,1,14
256,208,52880,12,2,54339
48,48,54825,5,4
464,48,55798,1,4
336,304,56771,5,4
256,304,57257,1,4
176,304,57743,1,4
464,336,58716,5,4
48,336,59688,1,4
176,80,60661,5,4
256,80,61147,1,4
336,80,61634,1,4
368,304,62606,6,0,B|448:304|448:208|288:208|288:320|80:304|112:192,1,420,2|0
144,80,64551,6,0,B|64:80|64:176|224:176|224:64|432:80|400:192,1,420,2|0
400,288,66497,6,0,B|304:288|304:192,1,140,2|0
256,288,67469,2,0,B|256:144,1,140,2|0
207,207,68442,2,0,B|208:288|112:288,1,140,2|0
256,208,69414,12,4,73305
