osu file format v9

[General]
AudioFilename: Soul Boy.mp3
AudioLeadIn: 1500
PreviewTime: 37903
Countdown: 0
SampleSet: Soft
StackLeniency: 0.7
Mode: 0
LetterboxInBreaks: 1

[Editor]
DistanceSpacing: 0.7
BeatDivisor: 2
GridSize: 8

[Metadata]
Title:Soul Boy
Artist:Ken Nakagawa
Creator:Dusty
Version:Easy
Source:Atelier Iris: Grand Fantasm
Tags:phantasm gust

[Difficulty]
HPDrainRate:2
CircleSize:3
OverallDifficulty:3
ApproachRate:3
SliderMultiplier:1.6
SliderTickRate:1

[Events]
//Background and Video events
0,0,"atelieriris3-1-1.jpg"
//Break Periods
//Storyboard Layer 0 (Background)
//Storyboard Layer 1 (Fail)
//Storyboard Layer 2 (Pass)
//Storyboard Layer 3 (Foreground)
//Storyboard Sound Samples
//Background Colour Transformations
3,100,255,255,255

[TimingPoints]
1188,461.538461538462,4,2,1,65,1,0

[HitObjects]
136,104,1188,2,0,B|152:24|256:-24|360:24|376:104,1,320
488,128,2572,1,0
408,216,3034,1,2
104,184,3957,5,0
24,272,4418,1,2
136,296,4880,2,0,B|151:374|255:422|359:374|375:294,1,320
488,272,6264,1,0
408,184,6726,5,4
312,120,7187,1,8
200,120,7649,1,4
256,216,8111,1,8
200,312,8572,6,0,B|104:360|8:272|24:168|97:115,1,320,2|0
200,96,9957,1,0
312,120,10418,2,0,B|408:72|504:160|488:264|414:316,1,320,4|2
312,336,11803,1,0
256,192,12264,12,4,14111
256,192,14803,5,4
88,72,15957,6,0,B|8:88|-40:192|8:296|88:312,2,320,2|0|0
184,128,18264,1,2
256,40,18726,1,0
328,128,19187,1,2
424,72,19649,6,0,B|504:88|552:192|504:296|424:312,1,320,2|0
320,352,21034,1,8
192,352,21495,5,0
192,352,21726,1,4
256,264,22187,1,0
304,168,22649,1,6
208,112,23111,5,0
208,112,23341,2,0,B|156:17|16:32|-18:129|10:214,2,320,2|0|0
120,176,25649,2,0,B|96:280|192:328,1,160,0|2
216,224,26572,1,0
304,288,27034,6,0,B|356:383|496:368|530:271|502:186,1,320,2|2
400,232,28418,1,0
416,120,28880,5,4
344,40,29341,1,8
256,104,29803,1,6
168,40,30264,1,8
96,120,30726,1,4
88,352,32111,5,0
88,352,32572,1,2
424,352,33957,5,0
424,352,34418,1,2
256,192,35341,1,2
88,32,36264,5,2
192,72,36726,1,0
304,56,37188,1,0
408,96,37649,1,2
480,184,38111,6,0,B|496:288|400:336,1,160,4|0
376,224,39034,2,0,B|291:286|325:388,1,160,0|2
224,304,39957,1,2
0,384,40880,6,0,B|84:321|50:219,1,160
160,272,41803,2,0,B|104:216|80:104|144:16|256:-16|368:16|432:104|408:216|352:272,1,640,2|6
256,136,44341,1,4
256,304,45034,1,4
352,360,45495,6,0,B|312:256|352:176|440:144|512:192,1,320,2|0
472,80,46880,1,0
376,32,47341,2,0,B|360:112|256:160|152:112|136:32,1,320,2|0
40,80,48726,1,0
0,191,49188,6,0,B|72:144|160:176|200:256|160:360,1,320,2|2
272,360,50572,1,8
288,248,51034,5,0
288,248,51264,1,4
240,144,51726,1,0
208,40,52188,1,6
320,56,52649,5,0
320,56,52880,2,0,B|416:24|512:128|408:208|480:280,1,320,2|0
512,384,54264,1,0
408,344,54726,2,0,B|256:255|104:344,1,320,2|0
0,384,56111,1,0
36,275,56572,6,0,B|104:208|0:128|96:24|192:56,1,320,2|2
296,104,57957,1,8
352,182,58418,5,4
312,270,58880,1,8
216,280,59341,1,6
159,201,59803,1,8
256,192,60264,1,4
424,48,61649,21,0
424,48,62111,1,2
88,48,63495,5,0
88,48,63957,1,2
256,208,64880,1,2
424,368,65803,5,2
320,328,66264,1,0
208,344,66726,1,0
104,304,67188,1,2
32,216,67649,6,0,B|16:112|112:64,1,160,4|0
136,176,68572,2,0,B|221:114|187:12,1,160,0|2
288,96,69495,1,2
512,16,70418,6,0,B|428:79|462:181,1,160
352,128,71341,2,0,B|408:184|432:296|368:384|256:416|144:384|80:296|104:184|160:128,1,640,2|6
256,192,73418,12,4,75034
