osu file format v4

[General]
AudioFilename: Hirai Ken - Pop Star.mp3
AudioLeadIn: 0
AudioHash: d05fbece1a488d327f787a066ac17fbb
PreviewTime: -1
SampleSet: Normal

[Metadata]
Title:Pop Star
Artist:Ken Hirai
Creator:fritz214
Version:?????

[Difficulty]
HPDrainRate:10
CircleSize:5
OverallDifficulty:0
SliderMultiplier: 1.4
SliderTickRate: 1

[Events]
0,0,"ouendan5egzb5.png"
3,0,163,162,255

[TimingPoints]
0,1000,4,1,0

[HitObjects]
128,64,29758,5,0,
288,64,30659,1,0,
128,192,31014,2,0,B|128:192|448:192,1,280
192,128,35000,1,0,
192,192,36000,1,0,
192,64,37000,2,0,B|192:64|192:192,1,140
96,96,38790,1,0,
352,96,39439,1,0,
224,96,41324,1,0,
224,224,42108,1,0,
224,288,42909,1,0,
64,160,44861,1,0,
192,160,45545,1,0,
288,160,46197,1,0,
192,32,48251,1,0,
224,160,48933,1,0,
320,192,49751,1,0,
160,64,51000,2,0,B|160:64|192:256,3,140
128,160,55173,5,0,
316,159,56570,1,4,
256,192,57801,12,0,68896
64,128,72000,2,0,B|64:128|288:128,6,140
192,96,80000,2,0,B|192:96|192:224,5,140
128,256,87000,2,0,B|128:256|192:256,1,140
96,128,89392,1,0,
320,128,90260,1,0,
192,128,91144,1,0,
192,256,91997,1,0,
192,352,92897,1,0,
480,32,93474,6,0,B|480:32|32:352,2,420
32,32,101419,2,0,B|32:32|448:352,2,420
64,64,108341,1,0,
256,64,109009,1,0,
416,64,109842,1,0,
256,160,110885,1,0,
256,160,111069,1,0,
224,256,112378,1,0,
128,160,113229,1,0,
128,128,117000,2,0,B|128:128|288:128,1,140
96,64,120320,2,0,B|96:64|480:352,1,420
448,64,125492,2,0,B|448:64|64:320,1,420
64,96,131000,1,0,
224,96,132000,1,0,
256,192,133602,12,0,144397
64,96,146000,1,0,
64,96,147000,1,0,
160,64,147583,1,0,
384,64,147983,1,0,
256,64,149502,1,0,
256,192,150135,1,0,
160,288,151220,1,0,
256,288,151420,1,0,
256,128,152872,1,0,
256,128,153339,1,0,
256,128,154655,1,0,
256,128,156292,1,0,
256,128,156959,1,0,
256,128,157793,1,0,
192,160,160000,1,0,
96,192,161314,5,0,
256,192,163149,1,0,
256,96,163850,1,0,
352,96,165003,1,0,
288,160,166636,1,0,
288,160,167086,1,0,
192,256,168371,1,0,
96,256,168572,1,0,
96,160,170057,1,0,
224,64,170641,1,0,
288,160,171542,1,0,
256,192,173519,12,0,187233
256,192,179902,12,0,187258
160,64,193000,1,0,
160,64,194000,1,0,
160,64,195000,1,0,
160,128,196000,1,0,
160,256,197000,1,0,
160,288,198000,1,0,
32,128,201000,1,0,
160,128,202000,1,0,
128,160,203000,1,0,
128,160,204000,1,0,
128,224,205000,1,0,
224,160,206000,1,0,
128,64,213000,5,0,
128,128,214000,1,0,
128,192,215000,1,0,
128,96,220000,1,0,
128,160,221000,1,0,
192,160,222000,1,0,
192,64,223000,1,0,
96,64,224000,1,0,
96,128,225000,1,0,
192,128,226000,1,0,
192,256,227000,1,0,
128,256,228000,1,0,
128,160,229000,1,0,
160,160,230000,1,0,
160,224,231000,1,0,
160,288,232000,1,0,
64,96,235000,5,0,
32,192,237000,2,0,B|32:192|224:192,3,140
64,128,243000,1,0,
160,224,244000,1,0,
96,224,245000,1,0,
256,192,247000,12,0,255000
32,160,261000,2,0,B|32:160|576:160,1,420
256,0,268000,2,0,B|256:0|256:384,1,280
