osu file format v5

[General]
AudioFilename: Pop Star - Ken Hirai.mp3
AudioLeadIn: 3000
PreviewTime: -1
Countdown: 0
SampleSet: Normal
StackLeniency: 0.7
Mode: 0
LetterboxInBreaks: 1
SkinPreference:taiko

[Editor]
Bookmarks: 104889
DistanceSpacing: 1
BeatDivisor: 4
GridSize: 16

[Metadata]
Title:Pop Star
Artist:Ken Hirai
Creator:antony11
Version:TaikOsu-Hard
Source:
Tags:Taiko

[Difficulty]
HPDrainRate:5
CircleSize:4
OverallDifficulty:5
SliderMultiplier:1.4
SliderTickRate:2

[Events]
//Background and Video events
0,0,"spt_gall_art_002.jpg"
Video,-6400,"popstar-kenhirai.wmv"
//Break Periods
//Storyboard Layer 0 (Background)
//Storyboard Layer 1 (Fail)
//Storyboard Layer 2 (Pass)
//Storyboard Layer 3 (Foreground)
//Storyboard Sound Samples
//Background Colour Transformations
3,100,163,162,255

[TimingPoints]
1927,429.000429000429,4,1,1,79,1,0
72289,-100,4,1,1,79,0,1

[Colours]
Combo1 : 128,255,0
Combo2 : 241,182,3
Combo3 : 5,5,240
Combo4 : 240,5,5

[HitObjects]
472,344,1927,1,0
328,344,2356,1,0
32,40,3643,5,0
480,40,5359,5,0
200,40,6217,1,0
200,40,7075,1,0
200,320,7933,5,2
56,312,8362,1,2
56,168,8791,1,0
56,312,9220,1,0
200,320,9649,1,2
480,320,10507,5,0
480,40,11365,5,2
256,200,12223,5,0
112,200,12652,1,2
40,200,12866,1,0
40,56,13295,1,2
176,56,13724,1,0
384,56,14368,5,4
64,328,15655,5,0
200,328,16084,1,0
336,328,16513,1,0
336,328,16620,1,0
336,328,16727,1,0
336,256,16942,1,2
472,256,17371,5,0
472,112,17800,1,2
336,64,18229,1,0
336,64,18336,1,0
336,64,18443,1,0
336,136,18658,1,2
192,136,19087,5,0
192,272,19516,1,0
48,272,19945,1,0
48,272,20052,1,0
48,272,20159,1,0
48,200,20374,1,2
48,56,20803,5,0
184,56,21232,1,2
256,56,21446,1,0
344,160,21875,1,2
464,336,22519,5,0
320,336,22948,1,0
176,336,23377,1,0
176,336,23484,1,0
176,336,23591,1,0
176,264,23806,1,2
56,192,24235,1,0
56,48,24664,1,2
176,120,25093,1,0
176,120,25200,1,0
176,120,25307,1,0
248,120,25522,1,2
384,120,25951,5,0
384,120,26380,1,0
456,240,26809,1,0
456,240,26916,1,0
456,240,27023,1,0
392,272,27238,1,2
248,280,27667,2,2,B|208:304|152:280|184:200|160:160|112:136|64:160|32:144|40:104,2,280
64,48,31099,5,0
168,144,31528,1,0
216,192,31742,1,0
216,192,31849,1,0
216,192,31957,1,0
264,240,32171,1,0
376,328,32600,1,0
488,240,33029,5,2
488,168,33244,1,2
488,24,33673,1,2
344,24,34102,1,2
344,160,34531,1,0
200,160,34960,5,0
200,232,35174,1,0
200,232,35281,1,0
200,232,35389,1,0
128,232,35603,1,0
88,96,36032,1,2
56,320,37963,5,0
128,320,38177,1,0
200,320,38392,1,2
192,176,38821,5,0
264,176,39035,1,0
336,176,39250,1,0
376,40,39679,5,0
304,40,39893,1,0
232,40,40108,1,2
80,48,40537,5,0
56,184,40966,1,2
88,320,41395,1,0
224,320,41824,1,0
224,320,42038,1,0
360,320,42467,1,0
360,320,42896,1,0
288,112,43540,5,12
40,32,44827,5,0
40,168,45256,1,0
40,240,45470,1,0
40,240,45577,1,0
40,240,45685,1,0
112,240,45899,1,0
248,240,46328,1,0
248,96,46757,5,2
320,96,46972,1,2
448,40,47401,1,2
448,176,47830,1,2
448,312,48259,5,0
448,312,48688,1,0
376,312,48902,1,0
376,312,49009,1,0
376,312,49117,1,0
304,312,49331,1,0
160,312,49760,1,2
64,40,51691,5,0
112,88,51905,1,0
160,136,52120,1,2
296,136,52549,5,0
344,88,52763,1,0
392,40,52978,1,0
400,176,53407,5,0
400,176,53621,1,0
400,176,53836,1,2
400,312,54265,5,0
256,312,54694,1,2
256,168,55123,1,0
112,168,55552,1,0
112,168,55766,1,0
112,24,56195,1,0
328,24,56839,2,0,B|272:88|384:160|384:248|288:272,1,280
440,264,58126,5,0
312,320,58555,1,0
184,264,58984,1,0
112,264,59198,1,0
112,264,59305,1,0
112,264,59413,1,0
64,208,59627,5,0
112,152,59842,1,2
200,40,60271,1,0
200,40,60700,1,0
272,40,60914,1,0
304,40,61021,1,0
336,40,61129,1,0
336,112,61343,1,2
408,112,61558,1,2
408,248,61987,5,0
264,248,62416,1,0
264,320,62630,1,0
264,320,62737,1,0
264,320,62845,1,0
192,320,63059,1,0
120,320,63274,1,2
240,240,63703,5,0
248,96,64132,1,0
320,96,64346,1,0
320,96,64453,1,0
320,96,64561,1,0
392,96,64775,1,2
464,96,64990,1,2
464,232,65419,5,0
432,288,65633,1,0
392,232,65848,1,2
272,232,66277,5,0
272,232,66491,1,0
272,232,66706,1,2
152,304,67135,5,0
152,304,67349,1,0
120,240,67564,1,2
120,240,67778,1,2
168,184,67993,1,0
168,184,68207,1,0
120,136,68422,1,2
240,64,68851,5,0
312,64,69065,1,0
312,64,69172,1,0
312,64,69280,1,0
384,64,69494,1,0
384,64,69601,1,0
384,64,69709,1,0
384,64,69923,1,0
456,64,70138,1,0
472,200,70567,6,0,B|40:200,1,420
64,56,72283,5,4
272,56,72926,5,0
232,120,73141,1,0
312,120,73355,1,2
272,184,73570,1,2
408,184,73999,5,0
408,320,74428,1,0
264,320,74857,1,0
264,320,75071,1,0
264,320,75286,1,2
120,320,75715,1,0
56,192,76144,1,2
120,64,76573,5,0
120,64,76680,1,0
120,64,76787,1,0
192,64,77002,1,2
224,200,77431,1,0
224,200,77645,1,0
224,200,77860,1,2
360,200,78289,5,0
360,200,78396,1,0
360,200,78503,1,0
432,200,78718,1,2
432,128,78932,1,2
432,56,79147,1,0
224,56,79790,5,2
152,56,80005,1,2
80,56,80219,1,0
40,112,80434,1,2
40,248,80863,5,0
136,344,81292,1,0
272,344,81721,5,0
272,344,81935,1,0
272,344,82150,1,2
408,336,82579,1,0
448,200,83008,1,2
400,64,83437,5,0
400,64,83544,1,0
400,64,83651,1,0
328,64,83866,1,2
184,64,84295,5,0
112,64,84509,1,0
40,64,84724,1,2
40,200,85153,5,0
40,200,85260,1,0
40,200,85367,1,0
40,272,85582,1,2
96,312,85796,1,2
152,272,86011,1,0
360,272,86654,5,0
432,272,86869,1,0
392,208,87083,1,2
432,144,87298,1,2
288,144,87727,1,4
168,64,88156,1,4
56,144,88585,5,0
56,144,88692,1,0
56,144,88799,1,0
56,216,89014,1,2
56,352,89443,1,0
128,352,89657,1,0
200,352,89872,1,2
256,224,90301,5,0
256,224,90408,1,0
256,224,90515,1,0
328,224,90730,1,2
456,280,91159,1,0
456,208,91373,1,0
456,136,91588,1,2
344,56,92017,5,0
344,56,92124,1,0
344,56,92231,1,0
272,56,92446,1,2
224,104,92660,1,2
224,104,92875,1,0
56,232,93518,5,0
56,232,93733,1,2
112,272,93947,1,0
112,272,94162,1,2
240,320,94591,1,4
376,280,95020,1,12
480,192,95449,5,0
480,192,95556,1,0
480,192,95663,1,0
480,120,95878,1,2
352,56,96307,1,0
352,56,96521,1,0
352,56,96736,1,2
208,56,97165,5,0
208,56,97272,1,0
208,56,97379,1,0
136,56,97594,1,2
64,56,97808,1,2
64,128,98023,1,0
64,264,98452,5,2
64,336,98666,1,0
200,336,99095,1,2
200,336,99524,1,0
408,336,100168,5,4
256,192,101455,12,6,104887
