osu file format v5

[General]
AudioFilename: Pop Star - Ken Hirai.mp3
AudioLeadIn: 3000
PreviewTime: -1
Countdown: 1
SampleSet: Soft
StackLeniency: 0.9
Mode: 0
LetterboxInBreaks: 1

[Editor]
DistanceSpacing: 1
BeatDivisor: 4
GridSize: 16

[Metadata]
Title:Pop Star
Artist:Ken Hirai
Creator:antony11
Version:Normal
Source:
Tags:Taiko

[Difficulty]
HPDrainRate:3
CircleSize:4
OverallDifficulty:6
SliderMultiplier:1.5
SliderTickRate:1

[Events]
//Background and Video events
0,0,"spt_gall_art_002.jpg"
Video,-6400,"popstar-kenhirai.wmv"
//Break Periods
2,19288,28398
2,105089,114199
2,176727,198921
//Storyboard Layer 0 (Background)
//Storyboard Layer 1 (Fail)
//Storyboard Layer 2 (Pass)
//Storyboard Layer 3 (Foreground)
//Storyboard Sound Samples
//Background Colour Transformations
3,100,163,162,255

[TimingPoints]
1927,429.000429000429,4,2,2,100,1,0
15342,-200,4,2,1,100,0,0
19310,-100,4,2,1,82,0,0
199906,-100,4,2,1,31,0,0
205805,-200,4,2,1,30,0,0
208593,-100,4,1,0,100,0,0
216529,-200,4,2,0,100,0,0
218363,-100,4,1,0,100,0,0
219865,-100,4,1,0,100,0,1

[Colours]
Combo1 : 128,255,0
Combo2 : 241,182,3
Combo3 : 5,5,240
Combo4 : 240,5,5

[HitObjects]
64,48,1074,5,2
208,48,1503,1,0
208,192,1927,2,2,B|384:192,2,150
64,192,3214,1,0
64,320,3643,2,2,B|112:352|160:368|272:320,2,150
144,192,4930,5,2
80,64,5359,2,2,B|144:32|208:32|256:96,3,150
368,64,7075,1,0
464,176,7504,1,2
320,176,7933,2,2,B|256:256|144:224,2,150,0|2|0
320,176,9220,5,0
384,304,9649,1,2
384,304,10078,1,0
240,304,10507,1,2
240,304,10936,1,0
96,304,11365,2,2,B|96:176,3,75
96,228,12223,1,4
96,80,12652,5,2
96,80,12866,1,0
240,80,13295,1,2
384,80,13724,2,2,B|464:128|480:192|432:288,1,225,2|4
384,320,14582,5,2
336,272,14797,1,0
288,320,15011,1,2
240,272,15226,1,4
192,320,15440,2,0,B|64:288|16:272|32:144|320:176|464:144|224:48|48:32,1,637.5,0|4
464,336,29597,5,8
464,336,29812,1,0
384,336,30026,1,0
304,336,30241,2,0,B|384:272|320:128,2,150,8|0|8
208,224,31528,5,0
208,224,31742,2,8,B|160:192|160:64,2,150
96,320,33029,5,0
96,320,33244,2,0,B|96:144,1,150,8|0
96,172,33887,1,8
96,172,34102,1,8
80,96,34316,1,8
80,96,34531,2,8,B|160:64|224:64|272:96|272:128,1,150,0|8
192,160,35174,2,2,B|224:208|320:240|368:144,2,150,2|2|4
448,112,36890,5,8
448,112,37105,1,0
448,112,37319,1,0
448,112,37534,2,0,B|352:112,1,75,8|4
64,320,38606,5,8
64,320,38821,1,0
64,320,39035,2,8,B|176:320,1,75
139,320,39464,1,4
48,32,40322,5,8
48,96,40537,2,0,B|128:256,2,150,0|0|4
192,96,41824,5,2
272,96,42038,1,2
416,96,42467,1,0
416,96,42896,2,8,B|400:224|272:240,2,150
416,96,43969,5,0
416,96,44183,1,8
336,96,44398,1,0
336,96,44612,2,0,B|256:16|192:16|112:144,2,225,8|0|4
336,96,46114,1,8
416,96,46328,1,8
336,208,46757,5,8
336,208,46972,2,0,B|352:304|320:336|208:336,2,150,0|0|8
176,240,48259,1,2
16,240,48688,2,0,B|16:176|48:128|144:112,2,150,0|0|8
16,240,49760,1,4
448,64,50618,5,8
368,64,50833,2,0,B|208:64,2,150,0|0|4
336,208,52120,1,8
256,208,52334,1,8
176,208,52549,2,0,B|176:304,2,75,0|0|0
176,208,53192,2,0,B|176:96|112:48|32:80|32:224,1,300,0|4
32,272,54265,5,8
176,272,54694,1,8
32,272,55123,1,2
176,272,55552,1,2
256,272,55766,1,2
400,336,56195,5,2
400,256,56410,1,2
400,176,56624,1,4
32,336,57697,5,8
176,336,58126,2,0,B|144:320|96:288|128:192,2,150,0|0|8
176,336,59198,1,2
320,336,59627,2,0,B|480:336,2,150,8|0|4
320,256,60700,1,2
320,176,60914,2,0,B|352:112|416:112|496:208,2,150,8|0|4
496,320,62416,5,2
496,240,62630,1,2
432,112,63059,1,0
288,96,63488,2,0,B|208:64|176:80|160:160|160:192|192:192,1,150,2|2
272,240,64346,5,8
272,240,64561,1,8
144,160,64990,1,0
64,288,65419,1,0
64,288,65848,1,8
208,304,66277,2,8,B|240:352|288:368|352:304,2,150
320,208,67564,1,2
432,112,67993,2,8,B|416:64|368:48|304:48|256:64,3,150
208,160,69709,6,0,B|208:384,1,150,8|8
64,304,70567,2,8,B|64:64,2,225,8|8|8
65,304,72068,1,2
65,304,72283,1,4
464,320,72926,5,8
384,320,73141,1,0
384,320,73355,1,0
304,320,73570,1,8
304,320,73784,1,0
304,320,73999,2,8,B|304:160,2,150
224,320,75071,5,2
224,320,75286,1,2
224,320,75500,1,8
80,320,75929,1,4
48,64,76358,5,2
48,64,76573,2,8,B|64:192|192:192,2,150
192,64,77860,1,2
264,64,78074,2,8,B|312:48|344:48|408:112|344:176,2,150
264,136,79147,1,2
264,208,79361,1,4
48,320,79790,6,0,B|96:352|144:352|208:304,2,150,2|0|8
48,240,80863,1,4
48,96,81292,2,8,B|80:48|128:16|240:48,2,150
128,96,82364,1,2
128,176,82579,1,2
208,176,82793,2,0,B|240:96|336:80|432:112,1,225,0|8
400,103,83651,1,8
400,176,83866,6,0,B|480:288,2,75,8|0|0
400,320,84724,1,0
320,320,84938,1,2
176,320,85367,2,0,B|128:256|32:304,2,150,0|0|4
320,320,86654,5,8
400,320,86869,2,0,B|480:240,2,75,2|8|2
360,257,87512,1,8
360,256,87727,2,8,B|360:88,2,150
280,256,88799,1,0
208,256,89014,1,0
208,256,89228,2,0,B|120:256|96:200|128:104,2,150,8|0|0
280,256,90301,5,8
432,256,90730,1,2
432,104,91159,2,8,B|416:40|352:24|256:40,1,150
304,112,91802,2,8,B|232:120|192:104|208:16,1,150
206,39,92446,1,2
128,40,92660,1,0
128,40,92875,1,2
48,40,93089,1,4
48,192,93518,5,0
48,192,93733,1,8
136,192,93947,2,8,B|136:320,2,75
136,192,94591,1,2
288,192,95020,1,4
440,192,95449,5,8
440,192,95663,1,0
440,272,95878,2,8,B|440:360,2,75
440,272,96521,1,4
304,336,96950,5,0
240,296,97165,1,0
176,336,97379,1,8
112,296,97594,1,0
40,336,97808,1,8
40,336,98023,2,8,B|40:104,1,225
176,48,99095,1,0
320,48,99524,2,0,B|392:48|448:64|472:112|472:184,1,225,0|4
472,248,100382,5,0
472,248,100597,1,8
392,248,100811,1,0
392,248,101026,1,8
304,248,101240,1,8
256,192,101455,12,4,104887
448,336,115397,5,0
448,336,115612,1,8
304,336,116041,2,2,B|256:352|176:352|144:272,3,150,2|2|2|2
16,304,117757,5,0
16,160,118186,1,8
160,160,118615,2,0,B|176:96|224:80|288:96,2,150,0|8|0
160,160,119687,1,8
160,160,119902,1,4
288,240,120331,6,0,B|320:304|384:320|432:256,3,150,0|8|0|8
409,279,121832,1,4
176,112,122690,5,8
176,112,122905,1,0
176,112,123119,1,0
176,112,123334,1,8
176,112,123548,2,4,B|176:208,1,75
320,272,124192,5,8
320,272,124406,1,0
320,272,124621,1,8
320,272,124835,1,0
320,272,125050,2,4,B|320:176,1,75
256,32,126122,5,8
256,32,126337,2,2,B|256:208,3,150
256,182,127838,1,8
400,192,128267,2,2,B|400:128|464:128,2,75
167,264,129769,6,0,B|144:352|48:336,2,150,8|0|8
32,192,131056,1,0
32,192,131270,1,8
176,143,131699,2,0,B|165:68|69:52,2,150,8|0|0
256,144,132772,1,8
336,144,132986,2,0,B|336:64|432:64|496:96,2,150,8|0|8
336,144,134059,1,8
208,320,134488,5,8
288,320,134702,2,8,B|288:256|272:240|208:224|176:224,2,150,0|0|4
464,48,136633,5,2
464,192,137062,1,2
464,336,137491,1,2
320,336,137920,1,2
176,336,138349,1,2
32,336,138778,1,2
32,192,139207,1,2
32,48,139636,2,0,B|128:48,3,75,8|8|0|0
104,48,140494,1,8
256,48,140923,6,8,B|424:48,1,150
472,184,141781,2,8,B|256:184,1,150
232,304,142639,2,2,B|480:304,2,225,2|2|10
232,304,144140,1,8
232,304,144355,1,4
56,48,144998,5,8
56,136,145213,2,0,B|48:216|72:264|192:240,2,150,0|0|8
208,128,146500,1,8
352,144,146929,2,0,B|344:200|304:264|248:256,2,150,0|0|8
352,144,148001,1,8
464,240,148430,5,8
464,320,148645,2,8,B|312:320,2,150
464,176,149932,1,4
464,96,150146,2,8,B|304:96,1,150
240,96,150790,1,0
240,96,151004,1,8
160,96,151219,1,0
160,96,151433,1,8
56,336,151862,5,0
56,336,152077,2,0,B|144:368|200:312,2,150,8|0|8
56,184,153364,1,4
56,32,153793,1,8
56,32,154007,2,0,B|176:32,4,75,8|0|0|8|4
200,80,155294,6,0,B|128:152,5,75,0|0|8|0|8|2
296,136,156796,1,2
296,136,157010,1,2
432,64,157439,1,2
432,136,157654,1,8
432,208,157868,1,4
152,320,158726,5,8
112,264,158941,1,0
184,264,159155,1,0
152,200,159370,2,8,B|320:200,2,150
152,48,160657,5,0
120,112,160871,1,8
192,112,161086,1,0
152,176,161300,2,8,B|-32:176,2,150
224,176,162373,5,8
224,176,162587,1,0
296,176,162802,1,8
296,176,163016,1,0
296,176,163231,2,0,B|320:96|416:72|440:96,1,150,8|4
480,88,163874,2,8,B|480:264,1,150
480,312,164518,5,0
408,312,164732,1,8
336,312,164947,1,2
264,312,165161,1,4
112,312,165590,5,8
112,312,165805,2,0,B|112:184,3,75
112,240,166663,1,4
112,88,167092,1,4
264,80,167521,1,8
264,80,167735,2,0,B|344:80,3,75,0|0|8|8
408,80,168593,2,4,B|464:96|520:192|392:208,1,150
368,192,169237,5,0
368,264,169451,1,0
368,264,169666,1,8
368,264,169880,1,0
288,264,170095,2,8,B|248:328|112:240,1,150
120,192,170738,5,2
256,32,171167,1,2
400,192,171596,1,2
256,352,172025,1,8
256,352,172240,1,4
256,192,172454,12,2,176530
72,320,200125,5,2
120,176,200554,1,0
184,40,200983,1,2
336,40,201412,1,0
336,40,201626,1,2
392,176,202055,1,0
448,312,202484,1,2
256,184,203128,5,0
256,184,203342,1,2
256,336,203771,1,0
256,336,204200,1,2
256,112,204844,5,0
256,112,205058,1,0
256,112,205487,1,0
256,32,205916,6,2,B|160:80|136:136|248:192|336:192|400:216|312:280|184:312,1,450
196,309,208705,5,0
120,304,208919,1,8
120,304,209134,1,0
40,304,209348,2,8,B|24:200|96:112,1,150
64,160,209992,1,2
64,160,210206,2,8,B|160:176|208:168|200:72,1,150
194,128,210850,1,8
194,128,211064,1,2
328,56,211493,5,0
400,56,211708,1,8
400,56,211922,1,0
440,120,212137,1,8
440,120,212351,1,0
440,192,212566,1,2
440,192,212780,1,0
400,256,212995,6,8,B|384:312|280:352|224:240,1,225
288,200,213853,2,8,B|264:144|280:96|208:56|88:152,1,225
136,200,214711,2,2,B|64:216|8:184|16:152|80:304,1,150
88,296,215354,2,2,B|144:304|184:296|256:288|216:232|200:208|288:160,1,225
248,184,216212,5,8
248,184,216427,2,2,L|240:184|248:168|232:176|240:160|224:168|232:152|216:160|224:144|208:152|216:136|200:144|208:128|192:136|200:120|184:128|192:112|176:120|184:104|168:112|176:96|160:104|168:88|152:96|160:80|144:88|152:72|136:80|144:64|128:72|136:56|120:64|128:48|112:56|120:40|104:48|112:32,1,600,0|0
64,336,218786,5,8
144,336,219001,2,0,L|256:336,2,75,0|8|0
144,256,219644,1,0
144,256,219859,2,2,B|208:304|288:256,2,150
64,256,220931,5,0
64,176,221146,1,8
64,96,221360,2,4,B|128:48|192:64|240:112,2,150
128,144,222433,6,8,B|208:144,1,75
272,144,222862,1,8
272,144,223076,1,0
272,144,223291,2,0,B|272:224,1,75,0|8
352,208,223720,5,0
352,208,223934,2,0,B|352:320,1,75,0|8
352,284,224363,1,0
288,320,224578,5,2
288,320,224792,1,0
288,320,225007,1,2
224,288,225221,2,8,B|160:336|112:240,2,75
224,208,225865,1,0
224,208,226079,1,0
224,208,226294,1,8
224,128,226508,1,0
224,128,226723,2,8,B|384:128,1,150
448,96,227366,6,0,B|464:160|416:192,3,75,0|8|0|8
448,240,228224,1,0
384,288,228439,1,8
320,240,228653,2,2,B|256:160|160:192,1,150,2|2
176,256,229297,5,8
112,208,229511,1,0
128,128,229726,1,8
208,112,229940,1,0
288,128,230155,2,0,B|336:80|400:112,2,75,8|0|8
352,176,230798,2,4,B|400:240|320:272,1,75,4|8
432,240,231227,1,8
432,320,231442,1,0
352,320,231656,2,2,B|160:320,2,150,2|2|8
352,240,232729,5,0
352,240,232943,1,8
272,240,233158,1,0
272,240,233372,1,2
192,240,233587,2,8,B|112:224|144:96|208:112,2,150
192,320,234659,5,0
112,320,234874,1,2
32,320,235088,2,8,B|32:144,2,150,8|8|4
112,320,236161,5,0
192,320,236375,1,8
272,320,236590,1,0
352,320,236804,1,2
432,320,237019,2,2,B|432:112,1,150
448,96,237662,6,0,B|384:16,3,75,8|0|8|4
320,48,238520,1,0
320,128,238735,1,8
240,128,238949,2,4,B|240:288,1,150
256,352,239593,5,0
256,352,239807,1,8
176,352,240022,1,0
176,352,240236,1,8
176,272,240451,2,0,B|272:256|304:128,2,150,0|2|8
96,272,241523,5,0
96,272,241738,1,8
96,192,241952,1,0
96,192,242167,1,2
96,192,242381,2,8,B|208:160|176:64,1,150,8|4
182,88,243025,1,2
261,87,243239,5,2
261,87,243454,2,8,B|448:87,2,150,8|8|4
262,87,244526,5,2
416,320,244955,1,2
96,320,245384,1,2
192,224,245813,5,4
224,288,246028,1,8
304,288,246242,1,0
336,224,246457,1,8
304,160,246671,1,0
224,160,246886,1,2
262,222,247100,1,6
256,192,247315,12,4,252463
