osu file format v5

[General]
AudioFilename: Pop Star - Ken Hirai.mp3
AudioLeadIn: 0
PreviewTime: -1
Countdown: 1
SampleSet: Normal
StackLeniency: 0.7
Mode: 0
EditorBookmarks: 57856,140253

[Metadata]
Title:Pop Star (Authentic)
Artist:Ken Hirai
Creator:eirrol
Version:Normal

[Difficulty]
HPDrainRate:2
CircleSize:5
OverallDifficulty:3
SliderMultiplier:0.9
SliderTickRate:2

[Events]
//Background and Video events
//Break Periods
2,42469,57655
2,79191,93430
2,123823,139525
//Storyboard Layer 0 (Background)
//Storyboard Layer 1 (Failing)
//Storyboard Layer 2 (Passing)
//Storyboard Layer 3 (Foreground)
//Storyboard Sound Samples
//Background Colour Transformations
3,100,163,162,255

[TimingPoints]
1315,429.153851655819,4,1,1,100
140965,429.153851655819,4,1,1,100

[HitObjects]
392,144,15262,1,0
160,144,15906,1,0
48,144,16335,1,0
96,40,16764,2,0,B|424:40,1,315
416,192,20197,2,0,B|88:192,1,315
72,328,22558,6,0,B|150:322|195:288|192:208,1,180
328,336,24274,2,0,B|432:328|448:280|456:224,1,180
256,328,27064,5,0
400,256,27707,1,0
256,224,28136,1,0
112,192,28565,1,0
256,104,29210,1,4
416,40,30498,6,0,B|88:40,1,315
96,192,33931,2,0,B|424:192,1,315
440,328,36292,6,0,B|362:322|317:288|320:208,1,180
184,336,38008,2,0,B|80:328|64:280|56:224,1,180
128,144,39938,5,0
256,64,40368,1,0
392,144,40797,1,0
400,312,41440,1,0
256,312,41870,1,0
112,312,42299,1,4
392,120,58822,5,0
288,120,59251,1,0
184,120,59680,1,0
96,168,60109,1,0
64,256,60538,2,0,B|201:324|270:185|432:280,1,360
384,48,63114,5,0
256,168,63756,1,0
104,40,64400,1,0
256,40,64829,1,0
120,264,65688,5,0
224,264,66117,1,0
328,264,66546,1,2
416,216,66975,1,2
432,120,67404,2,0,B|280:56|214:188|64:96,1,360
256,328,69979,5,2
400,256,70622,1,2
256,224,71051,1,2
112,192,71480,1,2
256,56,72125,1,6
256,192,72769,12,4,78991
256,320,94870,1,0
360,232,95728,2,0,B|120:232,1,225
112,144,97230,2,0,B|400:144,1,270
440,56,98947,2,0,B|16:56,1,405
256,120,101737,5,0
256,208,102166,1,0
128,312,103024,5,2
256,312,103454,1,0
376,312,103883,1,2
376,168,104741,5,2
256,168,105170,1,2
136,168,105599,1,2
96,72,106028,5,0
96,296,106886,1,0
416,296,107745,1,0
256,184,108388,1,6
120,120,110320,5,0
224,120,110749,1,0
328,120,111178,1,2
416,168,111607,1,2
432,264,112036,2,0,B|327:333|228:215|64:296,1,360
128,48,114612,5,2
256,168,115254,1,2
408,40,115898,1,2
256,40,116327,1,2
120,264,117186,5,0
224,264,117615,1,0
328,264,118044,1,0
416,216,118473,1,2
440,112,118902,2,0,B|354:48|230:166|72:80,1,360
256,328,121477,5,2
112,256,122120,1,2
256,224,122549,1,2
400,192,122978,1,2
256,56,123623,1,6
392,120,140965,5,0
288,120,141394,1,0
184,120,141823,1,2
96,168,142252,1,2
80,264,142681,2,0,B|185:333|284:215|448:296,1,360
400,152,145257,5,0
264,280,145899,1,0
112,152,146543,1,0
256,152,146972,1,0
112,40,147831,5,0
216,40,148260,1,0
320,40,148689,1,2
408,88,149118,1,2
432,192,149547,2,0,B|346:256|222:138|64:224,1,360
256,136,152123,5,0
376,248,152766,1,0
256,304,153195,1,0
128,240,153625,1,4
56,304,154697,5,0
56,184,155127,1,0
56,64,155556,2,0,B|192:132|273:9|424:88,2,360
56,240,159633,1,0
192,176,160276,1,0
280,128,160706,1,4
456,304,161564,5,0
456,184,161993,1,0
440,64,162422,2,0,B|330:114|191:11|80:80,2,360
256,192,166285,12,4,169289
