osu file format v5

[General]
AudioFilename: Pop Star - Ken Hirai.mp3
AudioLeadIn: 0
PreviewTime: -1
Countdown: 1
SampleSet: Normal
EditorBookmarks: 59250,94441,140253

[Metadata]
Title:Pop Star (Authentic)
Artist:Ken Hirai
Creator:eirrol
Version:Insane

[Difficulty]
HPDrainRate:7
CircleSize:6
OverallDifficulty:7
SliderMultiplier:1.4
SliderTickRate:2

[Events]
//Background and Video events
//Break Periods
2,42469,57655
2,80041,93941
2,123755,139798
//Storyboard Layer 0 (Background)
//Storyboard Layer 1 (Failing)
//Storyboard Layer 2 (Passing)
//Storyboard Layer 3 (Foreground)
//Storyboard Sound Samples
//Background Colour Transformations
3,100,163,162,255

[TimingPoints]
1315,429.153851655819,4,1,1,100
141820,429.153851655819,4,1,1,100

[HitObjects]
176,64,15262,1,0
256,64,15477,1,0
192,192,15906,1,0
120,192,16120,1,0
48,192,16335,1,0
80,288,16764,2,0,B|136:333|224:336,1,140
272,336,17408,1,0
336,224,17837,1,0
400,112,18266,1,0
336,64,18695,5,0
256,64,18910,1,0
288,192,19339,1,0
360,192,19554,1,0
432,192,19768,1,0
432,288,20197,2,0,B|376:332|288:336,1,140
240,336,20841,1,0
160,224,21270,1,0
96,96,21699,1,0
448,192,22558,6,0,B|326:183|288:320,1,210
272,368,23416,1,0
304,192,24060,1,0
256,192,24274,2,0,B|112:208|96:320,1,210
80,368,25133,1,0
384,96,25991,5,0
304,64,26205,1,0
144,96,26635,1,0
320,176,27064,6,0,B|256:128|160:192,1,140
160,240,27707,1,0
256,256,28137,1,0
352,272,28566,1,0
336,64,28995,5,0
256,64,29210,1,0
288,192,29639,1,0
344,192,29853,1,0
400,192,30068,1,0
432,288,30497,2,0,B|376:332|288:336,1,140
240,336,31141,1,0
160,224,31570,1,0
96,96,31999,1,0
176,64,32428,5,0
256,64,32643,1,0
192,192,33072,1,0
128,192,33286,1,0
64,192,33501,1,0
80,288,33930,2,0,B|136:333|224:336,1,140
272,336,34574,1,0
336,224,35003,1,0
400,112,35432,1,0
80,192,36291,6,0,B|192:192|224:256|240:320,1,210
256,368,37149,1,0
264,192,37793,1,0
304,192,38007,2,0,B|448:184|464:320,1,210
480,352,38865,1,0
368,320,39724,5,0
288,272,39938,1,0
128,320,40368,1,0
192,144,40797,6,0,B|272:96|352:160,1,140
256,192,41440,1,0
160,64,41870,1,0
336,64,42299,1,4
440,248,58607,5,0
376,280,58821,2,0,B|312:327|224:320,1,140
176,312,59465,1,0
112,288,59679,1,0
64,128,60109,1,0
192,208,60538,2,0,B|256:243|352:200,1,140
384,176,61182,1,0
464,64,61611,1,0
256,128,62039,5,0
192,80,62254,2,0,B|257:33|336:96,1,140
360,224,63112,2,0,B|252:261|120:208,2,210
256,304,64829,1,0
256,304,65044,1,0
64,192,65473,5,0
112,160,65687,2,0,B|173:108|256:128,1,140
304,128,66331,1,0
368,144,66546,1,0
448,224,66975,1,0
336,272,67404,2,0,B|268:248|192:272,1,140
192,336,68048,2,0,B|272:320|352:352,1,140
432,192,68906,5,0
352,192,69121,1,0
144,192,69550,1,0
320,96,69979,6,0,B|256:49|176:96,1,140
144,160,70623,1,0
256,192,71052,1,0
368,224,71481,2,0,B|368:304|304:352,1,140
256,352,72125,1,4
80,208,73412,5,0
144,208,73627,1,0
192,160,73842,1,0
240,208,74056,2,0,B|384:208,1,140
384,144,74699,1,0
304,144,74914,2,0,B|128:144,1,140
160,80,75558,1,0
240,80,75772,2,0,B|400:80,1,140
448,80,76416,1,0
440,208,76846,5,0
376,208,77060,1,0
320,240,77275,1,0
264,208,77489,1,0
160,160,77918,1,0
96,176,78133,1,0
48,224,78348,2,4,B|128:320|212:343|336:336|433:316|496:224,1,490
336,64,94870,5,0
256,64,95085,1,0
176,64,95299,1,0
64,128,95728,2,0,B|128:192|208:192,1,140
256,192,96372,1,4
368,192,96801,1,4
480,192,97230,2,0,B|466:295|288:272,1,210
240,272,98089,1,4
160,224,98518,1,4
32,224,98947,2,0,B|44:346|176:352,1,210
232,352,99805,1,4
344,352,100234,2,0,B|483:342|488:224,1,210
384,192,101522,5,0
304,192,101737,1,0
232,192,101951,1,0
160,192,102166,1,0
352,128,103024,5,0
400,64,103239,1,0
304,64,103453,1,0
128,64,103882,1,0
144,272,104526,5,0
176,208,104741,1,0
224,272,104955,1,0
256,208,105170,1,0
400,240,105599,1,0
448,336,106028,5,4
80,336,106886,1,4
320,192,107744,2,0,B|256:128|176:208,1,140
256,240,108388,1,0
256,48,109247,1,0
256,48,109461,1,4
72,248,110105,5,0
136,280,110320,2,0,B|200:327|288:320,1,140
336,312,110963,1,0
400,288,111178,1,0
448,128,111607,1,0
320,208,112036,2,0,B|256:243|160:200,1,140
128,176,112680,1,0
48,64,113109,1,0
256,128,113538,5,0
320,80,113753,2,0,B|255:33|176:96,1,140
160,208,114611,2,4,B|256:250|384:200,2,210
256,304,116328,1,0
256,304,116542,1,0
448,192,116972,5,0
400,160,117187,2,0,B|339:108|256:128,1,140
208,128,117830,1,0
144,144,118045,1,0
64,224,118474,1,0
176,272,118903,2,0,B|244:248|320:272,1,140
320,336,119547,2,4,B|240:320|160:352,1,140
80,192,120405,5,0
160,192,120620,1,0
368,192,121049,1,0
192,96,121478,6,0,B|256:49|336:96,1,140
368,160,122122,1,0
256,192,122550,1,0
144,224,122979,2,0,B|144:304|208:352,1,140
256,352,123623,1,4
440,248,140790,5,0
376,280,141005,2,0,B|312:327|224:320,1,140
176,312,141609,1,0
112,288,141824,1,0
64,128,142253,1,4
192,208,142682,2,0,B|256:243|352:200,1,140
384,176,143326,1,4
464,64,143755,1,0
256,128,144184,5,0
192,80,144398,2,0,B|257:33|336:96,1,140
352,224,145257,2,4,B|256:256|112:208,2,210
256,304,146973,1,0
256,304,147188,1,4
72,248,147617,5,0
136,280,147832,2,0,B|200:327|288:320,1,140
336,312,148475,1,0
400,288,148690,1,0
448,128,149119,1,4
320,208,149548,2,0,B|256:243|160:200,1,140
128,176,150192,1,4
48,64,150621,1,4
256,128,151050,5,0
320,80,151265,2,0,B|255:33|176:96,1,140
192,224,152123,2,0,B|259:252|336:224,1,140
336,304,152767,2,0,B|257:329|192:304,1,140
256,160,153625,1,0
256,160,153840,1,4
368,320,154484,5,0
296,336,154698,1,0
224,336,154913,1,0
160,312,155127,1,0
152,248,155342,1,0
192,200,155556,2,4,B|256:208|336:200,3,140
392,152,157058,1,0
472,40,157488,1,0
320,88,157917,6,0,B|256:32|192:88,1,140
256,128,158561,1,0
152,216,158990,2,0,B|263:267|376:200,2,210
256,312,160706,1,0
256,312,160921,1,4
368,64,161350,5,0
296,48,161565,1,0
224,48,161779,1,0
160,72,161994,1,0
136,136,162208,1,0
192,184,162423,2,4,B|256:176|336:184,3,140
328,264,163925,2,0,B|257:244|168:264,1,140
392,296,164783,5,0
312,296,164998,1,0
152,296,165427,1,0
256,192,165856,12,4,169289
