osu file format v5

[General]
AudioFilename: Pop Star - Ken Hirai.mp3
AudioLeadIn: 0
PreviewTime: -1
Countdown: 1
SampleSet: Normal
StackLeniency: 0.7
Mode: 0
EditorBookmarks: 140038

[Metadata]
Title:Pop Star (Authentic)
Artist:Ken Hirai
Creator:eirrol
Version:Hard

[Difficulty]
HPDrainRate:6
CircleSize:5
OverallDifficulty:5
SliderMultiplier:1.4
SliderTickRate:2

[Events]
//Background and Video events
//Break Periods
2,42469,57355
2,79968,93676
2,123827,139998
//Storyboard Layer 0 (Background)
//Storyboard Layer 1 (Failing)
//Storyboard Layer 2 (Passing)
//Storyboard Layer 3 (Foreground)
//Storyboard Sound Samples
//Background Colour Transformations
3,100,163,162,255

[TimingPoints]
1315,429.153851655819,4,1,1,100
141820,429.153851655819,4,1,1,100

[HitObjects]
336,320,15262,1,0
256,320,15477,1,0
320,192,15906,1,0
448,192,16335,1,0
432,96,16764,2,0,B|376:51|288:48,1,140
240,48,17408,1,0
176,160,17837,1,0
112,272,18266,1,0
176,320,18695,5,0
256,320,18910,1,0
224,192,19339,1,0
112,192,19768,1,0
80,96,20197,2,0,B|136:52|224:48,1,140
272,48,20841,1,0
352,160,21270,1,0
416,288,21699,1,0
64,192,22558,6,0,B|186:201|224:64,1,210
240,16,23416,1,0
256,192,24274,2,0,B|400:176|416:64,1,210
432,16,25133,1,0
128,288,25991,5,0
208,320,26205,1,0
368,288,26635,1,0
192,208,27064,6,0,B|256:256|352:192,1,140
352,144,27707,1,0
256,128,28137,1,0
160,112,28566,1,0
176,320,28995,5,0
256,320,29210,1,0
224,192,29639,1,0
112,192,30068,1,0
80,96,30497,2,0,B|136:52|224:48,1,140
272,48,31141,1,0
352,160,31570,1,0
416,288,31999,1,0
336,320,32428,5,0
256,320,32643,1,0
320,192,33072,1,0
448,192,33501,1,0
432,96,33930,2,0,B|376:51|288:48,1,140
240,48,34574,1,0
176,160,35003,1,0
112,272,35432,1,0
432,192,36291,6,0,B|320:192|288:128|272:64,1,210
256,16,37149,1,0
208,192,38007,2,0,B|64:200|48:64,1,210
32,32,38865,1,0
144,64,39724,5,0
224,112,39938,1,0
384,64,40368,1,0
320,240,40797,6,0,B|240:288|160:224,1,140
256,192,41440,1,0
352,320,41870,1,0
176,320,42299,1,4
72,136,58607,5,0
136,104,58821,2,0,B|200:57|288:64,1,140
336,72,59465,1,0
400,96,59679,1,0
448,256,60109,1,0
320,176,60538,2,0,B|256:141|160:184,1,140
128,208,61181,1,0
48,320,61611,1,0
256,256,62040,5,0
320,304,62254,2,0,B|255:351|176:288,1,140
152,160,63113,2,0,B|260:123|392:176,2,210
256,80,64829,1,0
256,80,65044,1,0
448,192,65473,5,0
400,224,65687,2,0,B|339:276|256:256,1,140
208,256,66331,1,0
144,240,66546,1,0
64,160,66975,1,0
176,112,67404,2,0,B|244:136|320:112,1,140
320,48,68048,2,0,B|240:64|160:32,1,140
80,192,68906,5,0
160,192,69121,1,0
368,192,69550,1,0
192,288,69979,6,0,B|256:335|336:288,1,140
368,224,70623,1,0
256,192,71052,1,0
144,160,71481,2,0,B|144:80|208:32,1,140
256,32,72125,1,4
432,176,73627,5,0
272,176,74057,2,0,B|128:176,1,140
128,240,74700,1,0
208,240,74915,2,0,B|384:240,1,140
352,304,75559,1,0
272,304,75773,2,0,B|112:304,1,140
64,304,76417,1,0
64,176,76846,6,0,B|240:176,1,140
272,176,77489,1,0
352,224,77918,1,0
416,208,78133,1,0
464,160,78348,2,4,B|384:64|300:41|176:48|79:68|16:160,1,490
176,320,94870,5,0
256,320,95085,1,0
336,320,95299,1,0
448,256,95728,2,0,B|384:192|304:192,1,140
256,192,96372,1,4
144,192,96801,1,4
32,192,97230,2,0,B|46:89|224:112,1,210
272,112,98089,1,4
352,160,98518,1,4
480,160,98947,2,0,B|468:38|336:32,1,210
280,32,99805,1,4
168,32,100234,2,0,B|29:42|24:160,1,210
128,192,101522,5,0
208,192,101737,1,0
352,192,102166,1,0
160,256,103024,5,0
112,320,103239,1,0
208,320,103453,1,0
384,320,103882,1,0
368,112,104526,5,0
336,176,104741,1,0
288,112,104955,1,0
256,176,105170,1,0
112,144,105599,1,0
64,48,106028,5,4
432,48,106886,1,4
192,192,107744,2,0,B|256:256|336:176,1,140
256,144,108388,1,0
256,336,109461,1,4
440,136,110105,5,0
376,104,110320,2,0,B|312:57|224:64,1,140
176,72,110963,1,0
112,96,111178,1,0
64,256,111607,1,0
192,176,112036,2,0,B|256:141|352:184,1,140
384,208,112680,1,0
464,320,113109,1,0
256,256,113538,5,0
192,304,113753,2,0,B|257:351|336:288,1,140
352,176,114611,2,4,B|256:134|128:184,2,210
256,80,116328,1,0
256,80,116542,1,0
64,192,116971,5,0
112,224,117186,2,0,B|173:276|256:256,1,140
304,256,117829,1,0
368,240,118044,1,0
448,160,118473,1,0
336,112,118902,2,0,B|268:136|192:112,1,140
192,48,119546,2,4,B|272:64|352:32,1,140
432,192,120405,5,0
352,192,120620,1,0
144,192,121049,1,0
320,288,121478,6,0,B|256:335|176:288,1,140
144,224,122121,1,0
256,192,122551,1,0
368,160,122980,2,0,B|368:80|304:32,1,140
256,32,123623,1,4
72,136,140790,5,0
136,104,140965,2,0,B|200:57|288:64,1,140
336,72,141608,1,0
400,96,141823,1,0
448,256,142252,1,4
320,176,142681,2,0,B|256:141|160:184,1,140
128,208,143325,1,4
48,320,143754,1,0
256,256,144183,5,0
320,304,144398,2,0,B|255:351|176:288,1,140
160,160,145256,2,4,B|256:128|400:176,2,210
256,80,146972,1,0
256,80,147187,1,4
440,136,147616,5,0
376,104,147831,2,0,B|312:57|224:64,1,140
176,72,148474,1,0
112,96,148689,1,0
64,256,149118,1,4
192,176,149547,2,0,B|256:141|352:184,1,140
384,208,150191,1,4
464,320,150620,1,4
256,256,151049,5,0
192,304,151264,2,0,B|257:351|336:288,1,140
320,160,152122,2,0,B|253:132|176:160,1,140
176,80,152766,2,0,B|255:55|320:80,1,140
256,224,153624,1,0
256,224,153839,1,4
144,64,154483,5,0
216,48,154697,1,0
288,48,154912,1,0
352,72,155126,1,0
320,184,155555,2,4,B|256:176|176:184,3,140
120,232,157057,1,0
40,344,157487,1,0
192,296,157916,6,0,B|256:352|320:296,1,140
256,256,158560,1,0
360,168,158989,2,0,B|249:117|136:184,2,210
256,72,160705,1,0
256,72,160920,1,4
144,320,161349,5,0
216,336,161564,1,0
288,336,161778,1,0
352,312,161993,1,0
320,200,162422,2,4,B|256:208|176:200,3,140
184,120,163924,2,0,B|255:140|344:120,1,140
120,88,164782,5,0
200,88,164997,1,0
360,88,165426,1,0
256,192,165855,12,4,169181
