osu file format v5

[General]
AudioFilename: Pop Star - Ken Hirai.mp3
AudioLeadIn: 0
PreviewTime: -1
Countdown: 1
SampleSet: Normal
StackLeniency: 0.7
Mode: 0
EditorBookmarks: 57856,140253

[Metadata]
Title:Pop Star (Authentic)
Artist:Ken Hirai
Creator:eirrol
Version:Easy

[Difficulty]
HPDrainRate:1
CircleSize:5
OverallDifficulty:0
SliderMultiplier:0.8
SliderTickRate:2

[Events]
//Background and Video events
//Break Periods
2,42469,57655
2,79621,94048
//Storyboard Layer 0 (Background)
//Storyboard Layer 1 (Failing)
//Storyboard Layer 2 (Passing)
//Storyboard Layer 3 (Foreground)
//Storyboard Sound Samples
//Background Colour Transformations
3,100,163,162,255

[TimingPoints]
1315,429.153851655819,4,1,1,100
140965,429.153851655819,4,1,1,100

[HitObjects]
112,72,16764,2,0,B|400:72,1,280
400,312,20197,6,0,B|112:312,1,280
104,80,23416,5,0
408,80,25133,5,0
440,320,27064,6,0,B|72:320,1,360
400,72,30497,6,0,B|112:72,1,280
112,312,33930,6,0,B|400:312,1,280
408,80,37149,5,0
88,80,38865,1,0
112,304,40797,6,6,B|408:304,1,280
416,96,59679,5,0
328,96,60109,1,0
88,96,61181,1,0
88,288,63112,5,0
256,288,63970,1,0
424,288,64829,1,0
416,96,66546,5,0
328,96,66976,1,0
88,96,68048,1,0
32,304,69121,6,0,B|488:304,1,440
256,192,72983,12,4,79421
400,24,95728,2,0,B|400:352,1,320
88,344,98732,6,0,B|88:16,1,320
256,72,102595,5,0
256,304,103882,1,0
416,176,106028,6,4,B|80:176,2,320
416,96,111178,5,0
328,96,111608,1,0
88,96,112680,1,0
88,288,114611,5,0
256,288,115469,1,0
424,288,116328,1,0
416,96,118045,5,0
328,96,118475,1,0
88,96,119547,1,0
32,304,120620,6,0,B|488:304,1,440
416,96,141823,5,0
328,96,142253,1,0
88,96,143325,1,0
88,288,145256,5,0
256,288,146114,1,0
424,288,146973,1,0
416,96,148690,5,0
328,96,149120,1,0
88,96,150192,1,0
32,304,151265,6,0,B|488:304,1,440
416,96,155556,5,0
328,96,155986,1,0
88,96,157058,1,0
88,288,158989,5,0
256,288,159847,1,0
424,288,160706,1,0
416,96,162423,5,0
328,96,162853,1,0
88,96,163925,1,0
256,192,165104,12,4,169289
